Поиск

(Contemporary Jazz, Post-Bop) [CD] Ulysses Owens Jr. (with Anat Cohen, Christian Sands, Gilad Hekselman, Michael Dease, Jason Palmer, Reuben Rogers) - Onward & Upward - 2014, FLAC (tracks+.cue), lossless

(Contemporary Jazz, Post-Bop) [CD] Ulysses Owens Jr. (with Anat Cohen, Christian Sands, Gilad Hekselman, Michael Dease, Jason Palmer, Reuben Rogers) - Onward & Upward - 2014, FLAC (tracks+.cue), lossless
Треклист:
ULYSSES OWENS JR.
ONWARD & UPWARD

Жанр: Contemporary Jazz, Post-Bop
Страна-производитель диска: USA
Год издания: 2014
Издатель (лейбл): D Clef Records
Аудиокодек: FLAC (*.flac)
Тип рипа: tracks+.cue
Битрейт аудио: lossless
Продолжительность: 58:08
Источник (релизер): спасибо LieutenantDan
Наличие сканов в содержимом раздачи: нет
Треклист:
1. Onward & Upward Intro
2. People Make the World Go Round
3. Just 25 Miles to Anywhere
4. SST
5. Exodus
6. Samba Jam
7. Fee Fi Fo Fum
8. The Gift of Forgiveness
9. For Nelson
10. Human Nature
11. Drum Postlude
 
Лог создания рипа
Exact Audio Copy V1.0 beta 3 from 29. August 2011
EAC extraction logfile from 17. February 2014, 16:32
Ulysses Owens Jr. / Onward & Upward
Used drive  : TSSTcorpDVD+-RW TS-L633C   Adapter: 3  ID: 0
Read mode               : Secure
Utilize accurate stream : Yes
Defeat audio cache      : No
Make use of C2 pointers : No
Read offset correction                      : 6
Overread into Lead-In and Lead-Out          : No
Fill up missing offset samples with silence : Yes
Delete leading and trailing silent blocks   : No
Null samples used in CRC calculations       : Yes
Used interface                              : Native Win32 interface for Win NT & 2000
Gap handling                                : Appended to previous track
Used output format              : User Defined Encoder
Selected bitrate                : 1024 kBit/s
Quality                         : High
Add ID3 tag                     : No
Command line compressor         : E:\Exact Audio Copy\Flac\flac.exe
Additional command line options : -8 -V -T "ARTIST=%artist%" -T "TITLE=%title%" -T "ALBUM=%albumtitle%" -T "DATE=%year%" -T "TRACKNUMBER=%tracknr%" -T "GENRE=%genre%" -T "PERFORMER=%albuminterpret%" -T "COMPOSER=%composer%" %haslyrics%--tag-from-file=LYRICS="%lyricsfile%"%haslyrics% -T "ALBUMARTIST=%albumartist%" -T "DISCNUMBER=%cdnumber%" -T "TOTALDISCS=%totalcds%" -T "TOTALTRACKS=%numtracks%" -T "COMMENT=%comment%" %source% -o %dest%
TOC of the extracted CD
     Track |   Start  |  Length  | Start sector | End sector
    ---------------------------------------------------------
        1  |  0:00.00 |  1:00.52 |         0    |     4551
        2  |  1:00.52 |  4:33.66 |      4552    |    25092
        3  |  5:34.43 |  6:49.70 |     25093    |    55837
        4  | 12:24.38 |  6:25.28 |     55838    |    84740
        5  | 18:49.66 |  5:25.45 |     84741    |   109160
        6  | 24:15.36 |  4:33.18 |    109161    |   129653
        7  | 28:48.54 |  8:09.22 |    129654    |   166350
        8  | 36:58.01 |  6:30.03 |    166351    |   195603
        9  | 43:28.04 |  5:38.48 |    195604    |   221001
       10  | 49:06.52 |  6:22.57 |    221002    |   249708
       11  | 55:29.34 |  2:57.09 |    249709    |   262992
Track  1
     Filename E:\New folder\Ulysses Owens Jr - Onward & Upward (2014) [FLAC]\01 - Onward & Upward Intro.wav
     Pre-gap length  0:00:02.00
     Peak level 97.7 %
     Extraction speed 1.4 X
     Track quality 100.0 %
     Test CRC B4038744
     Copy CRC B4038744
     Track not present in AccurateRip database
     Copy OK
Track  2
     Filename E:\New folder\Ulysses Owens Jr - Onward & Upward (2014) [FLAC]\02 - People Make the World Go Round.wav
     Pre-gap length  0:00:01.77
     Peak level 95.5 %
     Extraction speed 1.6 X
     Track quality 99.9 %
     Test CRC 96FB296E
     Copy CRC 96FB296E
     Track not present in AccurateRip database
     Copy OK
Track  3
     Filename E:\New folder\Ulysses Owens Jr - Onward & Upward (2014) [FLAC]\03 - Just 25 Miles To Anywhere.wav
     Pre-gap length  0:00:01.98
     Peak level 95.5 %
     Extraction speed 1.8 X
     Track quality 100.0 %
     Test CRC D2882834
     Copy CRC D2882834
     Track not present in AccurateRip database
     Copy OK
Track  4
     Filename E:\New folder\Ulysses Owens Jr - Onward & Upward (2014) [FLAC]\04 - SST.wav
     Pre-gap length  0:00:02.02
     Peak level 95.5 %
     Extraction speed 2.0 X
     Track quality 100.0 %
     Test CRC 93FCA31C
     Copy CRC 93FCA31C
     Track not present in AccurateRip database
     Copy OK
Track  5
     Filename E:\New folder\Ulysses Owens Jr - Onward & Upward (2014) [FLAC]\05 - Exodus.wav
     Pre-gap length  0:00:02.06
     Peak level 95.5 %
     Extraction speed 2.0 X
     Track quality 100.0 %
     Test CRC 1A7D0223
     Copy CRC 1A7D0223
     Track not present in AccurateRip database
     Copy OK
Track  6
     Filename E:\New folder\Ulysses Owens Jr - Onward & Upward (2014) [FLAC]\06 - Samba Jam.wav
     Pre-gap length  0:00:01.24
     Peak level 95.5 %
     Extraction speed 2.0 X
     Track quality 99.9 %
     Test CRC A2A31E51
     Copy CRC A2A31E51
     Track not present in AccurateRip database
     Copy OK
Track  7
     Filename E:\New folder\Ulysses Owens Jr - Onward & Upward (2014) [FLAC]\07 - Fee Fi Fo Fum.wav
     Pre-gap length  0:00:02.26
     Peak level 95.5 %
     Extraction speed 2.3 X
     Track quality 100.0 %
     Test CRC D5D31214
     Copy CRC D5D31214
     Track not present in AccurateRip database
     Copy OK
Track  8
     Filename E:\New folder\Ulysses Owens Jr - Onward & Upward (2014) [FLAC]\08 - The Gift Of Forgiveness.wav
     Pre-gap length  0:00:01.88
     Peak level 97.4 %
     Extraction speed 2.4 X
     Track quality 100.0 %
     Test CRC 3000DD39
     Copy CRC 3000DD39
     Track not present in AccurateRip database
     Copy OK
Track  9
     Filename E:\New folder\Ulysses Owens Jr - Onward & Upward (2014) [FLAC]\09 - For Nelson.wav
     Pre-gap length  0:00:01.40
     Peak level 95.5 %
     Extraction speed 2.4 X
     Track quality 99.9 %
     Test CRC E04A4E05
     Copy CRC E04A4E05
     Track not present in AccurateRip database
     Copy OK
Track 10
     Filename E:\New folder\Ulysses Owens Jr - Onward & Upward (2014) [FLAC]\10 - Human Nature.wav
     Pre-gap length  0:00:01.85
     Peak level 97.7 %
     Extraction speed 2.5 X
     Track quality 99.9 %
     Test CRC BB6DED37
     Copy CRC BB6DED37
     Track not present in AccurateRip database
     Copy OK
Track 11
     Filename E:\New folder\Ulysses Owens Jr - Onward & Upward (2014) [FLAC]\11 - Drum Postlude.wav
     Pre-gap length  0:00:01.72
     Peak level 97.7 %
     Extraction speed 2.5 X
     Track quality 100.0 %
     Test CRC 44114B29
     Copy CRC 44114B29
     Track not present in AccurateRip database
     Copy OK
None of the tracks are present in the AccurateRip database
No errors occurred
End of status report
---- CUETools DB Plugin V2.1.3
[CTDB TOCID: 3FiziiqEBqwmo5ytImM25YzNl7A-] disk not present in database, Submit result: 3FiziiqEBqwmo5ytImM25YzNl7A- has been uploaded
==== Log checksum BB1684BFBB0C23B66FAA34F208B8F12272E2D3F3D832C5C45CCF0199C9E8F4CF ====
 
 
Содержание индексной карты (.CUE)
REM GENRE Jazz
REM DATE 2014
REM DISCID 790DB20B
REM COMMENT "ExactAudioCopy v1.0b3"
PERFORMER "Ulysses Owens Jr."
TITLE "Onward & Upward"
FILE "01 - Onward & Upward Intro.wav" WAVE
  TRACK 01 AUDIO
    TITLE "Onward & Upward Intro"
    PERFORMER "Ulysses Owens Jr."
    ISRC QMCJW1300001
    INDEX 01 00:00:00
  TRACK 02 AUDIO
    TITLE "People Make the World Go Round"
    PERFORMER "Ulysses Owens Jr."
    ISRC QMCJW1300002
    INDEX 00 00:58:69
FILE "02 - People Make the World Go Round.wav" WAVE
    INDEX 01 00:00:00
  TRACK 03 AUDIO
    TITLE "Just 25 Miles To Anywhere"
    PERFORMER "Ulysses Owens Jr."
    ISRC QMCJW1300003
    INDEX 00 04:31:67
FILE "03 - Just 25 Miles To Anywhere.wav" WAVE
    INDEX 01 00:00:00
  TRACK 04 AUDIO
    TITLE "SST"
    PERFORMER "Ulysses Owens Jr."
    ISRC QMCJW1300004
    INDEX 00 06:47:68
FILE "04 - SST.wav" WAVE
    INDEX 01 00:00:00
  TRACK 05 AUDIO
    TITLE "Exodus"
    PERFORMER "Ulysses Owens Jr."
    ISRC QMCJW1300005
    INDEX 00 06:23:23
FILE "05 - Exodus.wav" WAVE
    INDEX 01 00:00:00
  TRACK 06 AUDIO
    TITLE "Samba Jam"
    PERFORMER "Ulysses Owens Jr."
    ISRC QMCJW1300006
    INDEX 00 05:24:27
FILE "06 - Samba Jam.wav" WAVE
    INDEX 01 00:00:00
  TRACK 07 AUDIO
    TITLE "Fee Fi Fo Fum"
    PERFORMER "Ulysses Owens Jr."
    ISRC QMCJW1300007
    INDEX 00 04:30:73
FILE "07 - Fee Fi Fo Fum.wav" WAVE
    INDEX 01 00:00:00
  TRACK 08 AUDIO
    TITLE "The Gift Of Forgiveness"
    PERFORMER "Ulysses Owens Jr."
    ISRC QMCJW1300008
    INDEX 00 08:07:31
FILE "08 - The Gift Of Forgiveness.wav" WAVE
    INDEX 01 00:00:00
  TRACK 09 AUDIO
    TITLE "For Nelson"
    PERFORMER "Ulysses Owens Jr."
    ISRC QMCJW1300009
    INDEX 00 06:28:48
FILE "09 - For Nelson.wav" WAVE
    INDEX 01 00:00:00
  TRACK 10 AUDIO
    TITLE "Human Nature"
    PERFORMER "Ulysses Owens Jr."
    ISRC QMCJW1300010
    INDEX 00 05:36:59
FILE "10 - Human Nature.wav" WAVE
    INDEX 01 00:00:00
  TRACK 11 AUDIO
    TITLE "Drum Postlude"
    PERFORMER "Ulysses Owens Jr."
    ISRC QMCJW1300011
    INDEX 00 06:21:03
FILE "11 - Drum Postlude.wav" WAVE
    INDEX 01 00:00:00
 
 
Об альбоме
With his third leader date, Owens references the omnivorous attitude that's pervasive in today's jazz community. Since jazz means more things to more people than anybody could ever truly sort out, why not just touch on a lot of them? Owens goes with that line of thinking, throwing in everything from a groove-and-claps miniature (Onward & Upward Intro"), to a soulful vocal number ("People Make The World Go Round"), to a reflective original ("The Gift Of Forgiveness"). Nothing with a beat behind it is off-limits, as Owens pushes in some places and sits back in others. But regardless of what mode or mood he's in, Owens' music always points to the fact that he's in the driver's seat.
The drummer's taste in sidemen, like his playing, proves to be impeccable, as he brings in plenty of big guns to join the party. Things get playful and frisky when Anat Cohen's clarinet points south toward Brazil on "Samba Jam," Owens and pianist Christian Sands put a little intensity into the mix during "SST," trombonist Michael Dease steps forward on "For Nelson," and guitarist Gilad Hekselman adds a touch of modernity. Trumpeter Jason Palmer proves to be the standout in this sea of strong personalities, taking a spiritual stance in a few places and batting things around with Owens when the temperature rises. He's been "one to watch" for a while, but that might be too limiting a statement; one who's truly arrived should no longer have to wear such a label.
There's a lot to love here, and a lot of players to appreciate, but Owens owns this one. It's all about grooves, good vibes and a winning attitude. (Dan Bilawsky, AllAboutJazz)
 
 
Состав
Ulysses Owens Jr. - drums, percussion, vocals
Anat Cohen - tenor saxophone, clarinet
Jason Palmer - trumpet
Michael Dease - trombone
Gilad Hekselman - guitar
Christian Sands - piano, kalimba
Reuben Rogers - bass
&
Charles Turner - vocals (2)
Matthew Rybicki - bass (8, 9, 10)
Benny Benack - percussion (1), trumpet (8)
Adam Rongo - alto saxophone (9)
По всем вопросам пишите личное сообщение пользователю M0p94ok.
05:27
365
Нет комментариев. Ваш будет первым!