Поиск

(Post-Bop, Ethnic Jazz) Theodosii Spassov - Bratimene - 1983-1998, FLAC (image+.cue), lossless

(Post-Bop, Ethnic Jazz) Theodosii Spassov - Bratimene - 1983-1998, FLAC (image+.cue), lossless
Треклист:
Theodosii Spassov - Bratimene
Жанр: Post-Bop, Ethnic Jazz
Год выпуска диска: 1983-1998
Производитель диска: Gege New (1998)
Аудио кодек: FLAC
Тип рипа: image+.cue
Битрейт аудио: lossless
Продолжительность: 59:02
Трэклист:
01. Horo with Kaval (Darin Barnev) 5:53
02. Rhodope Song (Roumen Toskov) 4:30
03. Old Wives' Tales (Theodosii Spassov) 6:57
04. Paleontologomania (Theodosii Spassov) 2:59
05. Satin Doll (Duke Ellington) 5:57
06. Pendata (Pendata) 2:32
07. Song about the Couscous (Vesselin Nikolov) 6:22
08. Samba Rachenitsa (Darin Barnev) 4:46
09. Gyurkata (Theodosii Spassov) 5:06
10. A Little Something out of Nothing (Theodosii Spassov) 2:06
11. Rada (Folk Song) 4:15
12. For Nicky (Theodosii Spassov) 4:42
13. Christmas Eve with Bells (Theodosii Spassov) 2:51
Theodosii Spassov - kaval, vocals
Yildaz Ibrahimova - vocals
Stoyan Yankulov - percussion
Milcho Leviev - piano
Vesselin Nikolov - sax
Simeon Shterev, Peter Petrov, Stefka Onikian

Theodosii Spassov - болгарский исполнитель на духовом интструменте под названием Болгарский ковал, ну и поёт хорошо. Ну ютубе и подобных сервисах можно ролики с ним посмотреть. Этот диск сборник его произведений разных лет где Теодосию акомпанируют лучшие болгарские джазовые музыканты.
 
Лог EAC
Exact Audio Copy V0.99 prebeta 4 from 23. January 2008
EAC extraction logfile from 30. June 2009, 18:35
Theodosii Spassov / Bratimene
Used drive : _NEC DVD_RW ND-3500AG Adapter: 0 ID: 0
Read mode : Secure
Utilize accurate stream : Yes
Defeat audio cache : Yes
Make use of C2 pointers : No
Read offset correction : 48
Overread into Lead-In and Lead-Out : No
Fill up missing offset samples with silence : Yes
Delete leading and trailing silent blocks : No
Null samples used in CRC calculations : Yes
Used interface : Native Win32 interface for Win NT & 2000
Used output format : User Defined Encoder
Selected bitrate : 768 kBit/s
Quality : High
Add ID3 tag : No
Command line compressor : C:\Program Files\Exact Audio Copy\FLAC\FLAC.EXE
Additional command line options : -6 -V -T "ARTIST=%a" -T "TITLE=%t" -T "ALBUM=%g" -T "DATE=%y" -T "TRACKNUMBER=%n" -T "GENRE=%m" -T "COMMENT=%e" %s -o %d
TOC of the extracted CD
Track | Start | Length | Start sector | End sector
---------------------------------------------------------
1 | 0:00.00 | 5:53.24 | 0 | 26498
2 | 5:53.24 | 4:30.36 | 26499 | 46784
3 | 10:23.60 | 6:57.12 | 46785 | 78071
4 | 17:20.72 | 2:59.29 | 78072 | 91525
5 | 20:20.26 | 5:57.71 | 91526 | 118371
6 | 26:18.22 | 2:32.55 | 118372 | 129826
7 | 28:51.02 | 6:22.40 | 129827 | 158516
8 | 35:13.42 | 4:46.74 | 158517 | 180040
9 | 40:00.41 | 5:06.51 | 180041 | 203041
10 | 45:07.17 | 2:06.02 | 203042 | 212493
11 | 47:13.19 | 4:15.26 | 212494 | 231644
12 | 51:28.45 | 4:42.33 | 231645 | 252827
13 | 56:11.03 | 2:52.67 | 252828 | 265794
Range status and errors
Selected range
Filename J:\eMusic\Rip\Theodosii Spassov - Bratimene.wav
Peak level 92.0 %
Range quality 99.9 %
Test CRC 8CF10227
Copy CRC 8CF10227
Copy OK
No errors occurred
End of status report
По всем вопросам пишите личное сообщение пользователю M0p94ok.
06:57
179
Нет комментариев. Ваш будет первым!