Поиск

(Latin Jazz / Afro-Cuban Jazz) Chucho Valdes & Ruben Gonzalez - Piano A Piano - 2004, FLAC (tracks+.cue), lossless

Треклист:
Chucho Valdes & Ruben Gonzalez - Piano A Piano
Жанр: Latin Jazz / Afro-Cuban Jazz
Год выпуска : 2004
Аудио кодек: FLAC
Тип рипа: tracks+.cue
Битрейт аудио: lossless
Продолжительность: 00:42:06
Рип: What CD


01. El Manicero (3:36)
02. El Mil Congojas (2:52)
03. Mambo En Re Menor (3:24)
04. Date Una Vueltecita (4:14)
05. Que Puedo Hacer (1:41)
06. Climax (2:45)
07. Realidad (2:01)
08. La Glorieta Eres Tu (3:29)
09. Para Pilar (2:31)
10. Prestame La Bicicleta (2:47)
11. Concierto (2:47)
12. Todo Aquel Ayer (3:05)
13. Como Siento Yo (3:00)
14. Fabiando (3:52)

 
EAC
Exact Audio Copy V0.99 prebeta 4 from 23. January 2008
EAC extraction logfile from 12. April 2009, 17:52
Chucho Valdes & Ruben Gonzalez / Piano A Piano
Used drive : PLEXTOR CD-R PREMIUM2 Adapter: 1 ID: 1
Read mode : Secure
Utilize accurate stream : Yes
Defeat audio cache : Yes
Make use of C2 pointers : No
Read offset correction : 30
Overread into Lead-In and Lead-Out : Yes
Fill up missing offset samples with silence : Yes
Delete leading and trailing silent blocks : No
Null samples used in CRC calculations : Yes
Used interface : Installed external ASPI interface
Gap handling : Appended to previous track
Used output format : User Defined Encoder
Selected bitrate : 32 kBit/s
Quality : High
Add ID3 tag : No
Command line compressor : C:\Programmi\FLAC\flac.exe
Additional command line options : -8 -V -T "ARTIST=%a" -T "TITLE=%t" -T "ALBUM=%g" -T "DATE=%y" -T "TRACKNUMBER=%n" -T "GENRE=%m" -T "COMMENT=EAC FLAC -8" %s
TOC of the extracted CD
Track | Start | Length | Start sector | End sector
---------------------------------------------------------
1 | 0:00.00 | 3:36.03 | 0 | 16202
2 | 3:36.03 | 2:52.36 | 16203 | 29138
3 | 6:28.39 | 3:24.22 | 29139 | 44460
4 | 9:52.61 | 4:13.51 | 44461 | 63486
5 | 14:06.37 | 1:40.72 | 63487 | 71058
6 | 15:47.34 | 2:45.08 | 71059 | 83441
7 | 18:32.42 | 2:01.12 | 83442 | 92528
8 | 20:33.54 | 3:29.09 | 92529 | 108212
9 | 24:02.63 | 2:31.22 | 108213 | 119559
10 | 26:34.10 | 2:47.14 | 119560 | 132098
11 | 29:21.24 | 2:47.17 | 132099 | 144640
12 | 32:08.41 | 3:05.21 | 144641 | 158536
13 | 35:13.62 | 3:00.06 | 158537 | 172042
14 | 38:13.68 | 3:52.08 | 172043 | 189450
Track 1
Filename D:\My Rip\01 - El Manicero.wav
Pre-gap length 0:00:02.00
Peak level 100.0 %
Track quality 100.0 %
Test CRC 35911FF1
Copy CRC 35911FF1
Track not present in AccurateRip database
Copy OK
Track 2
Filename D:\My Rip\02 - El Mil Congojas.wav
Peak level 100.0 %
Track quality 100.0 %
Test CRC 4AA3E350
Copy CRC 4AA3E350
Track not present in AccurateRip database
Copy OK
Track 3
Filename D:\My Rip\03 - Mambo En Re Menor.wav
Peak level 100.0 %
Track quality 100.0 %
Test CRC 21471422
Copy CRC 21471422
Track not present in AccurateRip database
Copy OK
Track 4
Filename D:\My Rip\04 - Date Una Vueltecita.wav
Peak level 100.0 %
Track quality 99.9 %
Test CRC 041FBA31
Copy CRC 041FBA31
Track not present in AccurateRip database
Copy OK
Track 5
Filename D:\My Rip\05 - Que Puedo Hacer.wav
Peak level 100.0 %
Track quality 99.8 %
Test CRC 7DB38703
Copy CRC 7DB38703
Track not present in AccurateRip database
Copy OK
Track 6
Filename D:\My Rip\06 - Climax.wav
Peak level 100.0 %
Track quality 100.0 %
Test CRC BA3AEF80
Copy CRC BA3AEF80
Track not present in AccurateRip database
Copy OK
Track 7
Filename D:\My Rip\07 - Realidad.wav
Peak level 100.0 %
Track quality 100.0 %
Test CRC B1FBC6D7
Copy CRC B1FBC6D7
Track not present in AccurateRip database
Copy OK
Track 8
Filename D:\My Rip\08 - La Glorieta Eres Tu.wav
Peak level 100.0 %
Track quality 100.0 %
Test CRC D5689D25
Copy CRC D5689D25
Track not present in AccurateRip database
Copy OK
Track 9
Filename D:\My Rip\09 - Para Pilar.wav
Peak level 100.0 %
Track quality 100.0 %
Test CRC 0E678A1F
Copy CRC 0E678A1F
Track not present in AccurateRip database
Copy OK
Track 10
Filename D:\My Rip\10 - Prestame La Bicicleta.wav
Peak level 100.0 %
Track quality 100.0 %
Test CRC 75832C4F
Copy CRC 75832C4F
Track not present in AccurateRip database
Copy OK
Track 11
Filename D:\My Rip\11 - Concierto.wav
Peak level 100.0 %
Track quality 100.0 %
Test CRC 8C901DAB
Copy CRC 8C901DAB
Track not present in AccurateRip database
Copy OK
Track 12
Filename D:\My Rip\12 - Todo Aquel Ayer.wav
Peak level 100.0 %
Track quality 99.9 %
Test CRC 7CD16120
Copy CRC 7CD16120
Track not present in AccurateRip database
Copy OK
Track 13
Filename D:\My Rip\13 - Como Siento Yo.wav
Peak level 100.0 %
Track quality 100.0 %
Test CRC A9BE5616
Copy CRC A9BE5616
Track not present in AccurateRip database
Copy OK
Track 14
Filename D:\My Rip\14 - Fabiando.wav
Peak level 100.0 %
Track quality 99.9 %
Test CRC 1D1B4DAD
Copy CRC 1D1B4DAD
Track not present in AccurateRip database
Copy OK
None of the tracks are present in the AccurateRip database
No errors occurred
End of status report
 
CUE
REM GENRE Latin
REM DATE 2004
REM DISCID C209DE0E
REM COMMENT "ExactAudioCopy v0.99pb4"
PERFORMER "Chucho Valdes & Ruben Gonzalez"
TITLE "Piano A Piano"
FILE "01 - El Manicero.flac" WAVE
TRACK 01 AUDIO
TITLE "El Manicero"
PERFORMER "Chucho Valdes & Ruben Gonzalez"
INDEX 01 00:00:00
FILE "02 - El Mil Congojas.flac" WAVE
TRACK 02 AUDIO
TITLE "El Mil Congojas"
PERFORMER "Chucho Valdes & Ruben Gonzalez"
INDEX 01 00:00:00
FILE "03 - Mambo En Re Menor.flac" WAVE
TRACK 03 AUDIO
TITLE "Mambo En Re Menor"
PERFORMER "Chucho Valdes & Ruben Gonzalez"
INDEX 01 00:00:00
FILE "04 - Date Una Vueltecita.flac" WAVE
TRACK 04 AUDIO
TITLE "Date Una Vueltecita"
PERFORMER "Chucho Valdes & Ruben Gonzalez"
INDEX 01 00:00:00
FILE "05 - Que Puedo Hacer.flac" WAVE
TRACK 05 AUDIO
TITLE "Que Puedo Hacer"
PERFORMER "Chucho Valdes & Ruben Gonzalez"
INDEX 01 00:00:00
FILE "06 - Climax.flac" WAVE
TRACK 06 AUDIO
TITLE "Climax"
PERFORMER "Chucho Valdes & Ruben Gonzalez"
INDEX 01 00:00:00
FILE "07 - Realidad.flac" WAVE
TRACK 07 AUDIO
TITLE "Realidad"
PERFORMER "Chucho Valdes & Ruben Gonzalez"
INDEX 01 00:00:00
FILE "08 - La Glorieta Eres Tu.flac" WAVE
TRACK 08 AUDIO
TITLE "La Glorieta Eres Tu"
PERFORMER "Chucho Valdes & Ruben Gonzalez"
INDEX 01 00:00:00
FILE "09 - Para Pilar.flac" WAVE
TRACK 09 AUDIO
TITLE "Para Pilar"
PERFORMER "Chucho Valdes & Ruben Gonzalez"
INDEX 01 00:00:00
FILE "10 - Prestame La Bicicleta.flac" WAVE
TRACK 10 AUDIO
TITLE "Prestame La Bicicleta"
PERFORMER "Chucho Valdes & Ruben Gonzalez"
INDEX 01 00:00:00
FILE "11 - Concierto.flac" WAVE
TRACK 11 AUDIO
TITLE "Concierto"
PERFORMER "Chucho Valdes & Ruben Gonzalez"
INDEX 01 00:00:00
FILE "12 - Todo Aquel Ayer.flac" WAVE
TRACK 12 AUDIO
TITLE "Todo Aquel Ayer"
PERFORMER "Chucho Valdes & Ruben Gonzalez"
INDEX 01 00:00:00
FILE "13 - Como Siento Yo.flac" WAVE
TRACK 13 AUDIO
TITLE "Como Siento Yo"
PERFORMER "Chucho Valdes & Ruben Gonzalez"
INDEX 01 00:00:00
FILE "14 - Fabiando.flac" WAVE
TRACK 14 AUDIO
TITLE "Fabiando"
PERFORMER "Chucho Valdes & Ruben Gonzalez"
INDEX 01 00:00:00
Download available for power users only.
06:56
196
Нет комментариев. Ваш будет первым!