Поиск

(Cuban Jazz) Cesar Lopez y Habana Ensemble - Clasicos de Cuba - 2007, FLAC (tracks+.cue), lossless

Треклист:
Cesar Lopez y Habana Ensemble - Clasicos de Cuba
Жанр: Cuban Jazz
Год выпуска диска: 2007
Аудио кодек: FLAC
Тип рипа: tracks+.cue
Продолжительность: 1 час 1 мин 15 сек
Трэклист:
01. Rosa mustia {6:55}
02. Quiereme y veras {5:48}
03. Tu no sospechas {4:35}
04. Llanto de luna {6:44}
05. En nosotros {6:46}
06. Tu mi desengano {4:00}
07. La tarde {6:22}
08. Noche cubana {5:25}
09. Scherezada {14:40}
 
лог EAC
Exact Audio Copy V0.99 prebeta 4 from 23. January 2008
EAC extraction logfile from 2. January 2009, 19:46
Cesar Lopez y Habana Ensemble / Clasicos de Cuba
Used drive : TSSTcorpCDDVDW TS-H653N Adapter: 2 ID: 2
Read mode : Secure
Utilize accurate stream : Yes
Defeat audio cache : No
Make use of C2 pointers : No
Read offset correction : 6
Overread into Lead-In and Lead-Out : No
Fill up missing offset samples with silence : Yes
Delete leading and trailing silent blocks : No
Null samples used in CRC calculations : Yes
Used interface : Native Win32 interface for Win NT & 2000
Gap handling : Appended to previous track
Used output format : Internal WAV Routines
Sample format : 44.100 Hz; 16 Bit; Stereo
TOC of the extracted CD
Track | Start | Length | Start sector | End sector
---------------------------------------------------------
1 | 0:00.00 | 6:55.36 | 0 | 31160
2 | 6:55.36 | 5:47.63 | 31161 | 57248
3 | 12:43.24 | 4:35.16 | 57249 | 77889
4 | 17:18.40 | 6:44.17 | 77890 | 108206
5 | 24:02.57 | 6:45.50 | 108207 | 138631
6 | 30:48.32 | 4:00.07 | 138632 | 156638
7 | 34:48.39 | 6:22.20 | 156639 | 185308
8 | 41:10.59 | 5:25.15 | 185309 | 209698
9 | 46:35.74 | 14:39.46 | 209699 | 275669
Track 1
Filename C:\CD_buffer\Cesar Lopez y Habana Ensemble - Clasicos de Cuba [2007] [FLAC]\01- Rosa mustia.wav
Pre-gap length 0:00:02.00
Peak level 99.2 %
Track quality 100.0 %
Copy CRC BED23AD6
Track not present in AccurateRip database
Copy OK
Track 2
Filename C:\CD_buffer\Cesar Lopez y Habana Ensemble - Clasicos de Cuba [2007] [FLAC]\02- Quiereme y veras.wav
Pre-gap length 0:00:03.96
Peak level 99.3 %
Track quality 100.0 %
Copy CRC A7592759
Track not present in AccurateRip database
Copy OK
Track 3
Filename C:\CD_buffer\Cesar Lopez y Habana Ensemble - Clasicos de Cuba [2007] [FLAC]\03- Tu no sospechas.wav
Pre-gap length 0:00:03.97
Peak level 99.3 %
Track quality 100.0 %
Copy CRC E5CCB6E2
Track not present in AccurateRip database
Copy OK
Track 4
Filename C:\CD_buffer\Cesar Lopez y Habana Ensemble - Clasicos de Cuba [2007] [FLAC]\04- Llanto de luna.wav
Pre-gap length 0:00:03.97
Peak level 99.3 %
Track quality 100.0 %
Copy CRC 47053964
Track not present in AccurateRip database
Copy OK
Track 5
Filename C:\CD_buffer\Cesar Lopez y Habana Ensemble - Clasicos de Cuba [2007] [FLAC]\05- En nosotros.wav
Pre-gap length 0:00:03.97
Peak level 99.3 %
Track quality 100.0 %
Copy CRC 148D09C0
Track not present in AccurateRip database
Copy OK
Track 6
Filename C:\CD_buffer\Cesar Lopez y Habana Ensemble - Clasicos de Cuba [2007] [FLAC]\06- Tu mi desengano.wav
Pre-gap length 0:00:03.96
Peak level 99.3 %
Track quality 99.9 %
Copy CRC BF5F679A
Track not present in AccurateRip database
Copy OK
Track 7
Filename C:\CD_buffer\Cesar Lopez y Habana Ensemble - Clasicos de Cuba [2007] [FLAC]\07- La tarde.wav
Pre-gap length 0:00:03.96
Peak level 99.3 %
Track quality 100.0 %
Copy CRC A45BC4BA
Track not present in AccurateRip database
Copy OK
Track 8
Filename C:\CD_buffer\Cesar Lopez y Habana Ensemble - Clasicos de Cuba [2007] [FLAC]\08- Noche cubana.wav
Pre-gap length 0:00:03.96
Peak level 99.2 %
Track quality 100.0 %
Copy CRC 7DD3B80C
Track not present in AccurateRip database
Copy OK
Track 9
Filename C:\CD_buffer\Cesar Lopez y Habana Ensemble - Clasicos de Cuba [2007] [FLAC]\09- Scherezada.wav
Pre-gap length 0:00:04.00
Peak level 99.2 %
Track quality 99.9 %
Copy CRC 6BC290D0
Track not present in AccurateRip database
Copy OK
None of the tracks are present in the AccurateRip database
No errors occurred
End of status report
 
лог Audiocheker
AUDIOCHECKER v2.0 beta (build 457) - by Dester - opdester@freemail.hu
~~~~~~~~~~~~~~~~~~~~~~~~~~~~~~~~~~
Started at: среда, 01. 07. 2009. - 8:53.23
9 files found
1 -===- I:\- раздаю -\Cesar_Lopez_y_Habana_Ensemble_-_Clasicos_de_Cuba_(2007)_[rutracker.org]\01- Rosa mustia.flac
Extracted successfully
Conclusion: this track is CDDA with probability 100%
Tempfile successfully deleted.
2 -===- I:\- раздаю -\Cesar_Lopez_y_Habana_Ensemble_-_Clasicos_de_Cuba_(2007)_[rutracker.org]\02- Quiereme y veras.flac
Extracted successfully
Conclusion: this track is CDDA with probability 100%
Tempfile successfully deleted.
3 -===- I:\- раздаю -\Cesar_Lopez_y_Habana_Ensemble_-_Clasicos_de_Cuba_(2007)_[rutracker.org]\03- Tu no sospechas.flac
Extracted successfully
Conclusion: this track is CDDA with probability 100%
Tempfile successfully deleted.
4 -===- I:\- раздаю -\Cesar_Lopez_y_Habana_Ensemble_-_Clasicos_de_Cuba_(2007)_[rutracker.org]\04- Llanto de luna.flac
Extracted successfully
Conclusion: this track is CDDA with probability 100%
Tempfile successfully deleted.
5 -===- I:\- раздаю -\Cesar_Lopez_y_Habana_Ensemble_-_Clasicos_de_Cuba_(2007)_[rutracker.org]\05- En nosotros.flac
Extracted successfully
Conclusion: this track is CDDA with probability 100%
Tempfile successfully deleted.
6 -===- I:\- раздаю -\Cesar_Lopez_y_Habana_Ensemble_-_Clasicos_de_Cuba_(2007)_[rutracker.org]\06- Tu mi desengano.flac
Extracted successfully
Conclusion: this track is CDDA with probability 99%
Tempfile successfully deleted.
7 -===- I:\- раздаю -\Cesar_Lopez_y_Habana_Ensemble_-_Clasicos_de_Cuba_(2007)_[rutracker.org]\07- La tarde.flac
Extracted successfully
Conclusion: this track is CDDA with probability 100%
Tempfile successfully deleted.
8 -===- I:\- раздаю -\Cesar_Lopez_y_Habana_Ensemble_-_Clasicos_de_Cuba_(2007)_[rutracker.org]\08- Noche cubana.flac
Extracted successfully
Conclusion: this track is CDDA with probability 100%
Tempfile successfully deleted.
9 -===- I:\- раздаю -\Cesar_Lopez_y_Habana_Ensemble_-_Clasicos_de_Cuba_(2007)_[rutracker.org]\09- Scherezada.flac
Extracted successfully
Conclusion: this track is CDDA with probability 100%
Tempfile successfully deleted.
This album (Cesar_Lopez_y_Habana_Ensemble_-_Clasicos_de_Cuba_(2007)_[rutracker.org]) seems to be CDDA with probability 99,89%
Finished at: среда, 01. 07. 2009. - 9:08.40 (operation time: 0:15.16)
 
Содержание индексной карты (.CUE)
REM GENRE Jazz
REM DATE 2007
REM DISCID 730E5B09
REM COMMENT "ExactAudioCopy v0.99pb4"
PERFORMER "Cesar Lopez y Habana Ensemble"
TITLE "Clasicos de Cuba"
FILE "Cesar Lopez y Habana Ensemble - Clasicos de Cuba [2007] [FLAC]\01- Rosa mustia.wav" WAVE
TRACK 01 AUDIO
TITLE "Rosa mustia"
PERFORMER "Cesar Lopez y Habana Ensemble"
INDEX 01 00:00:00
TRACK 02 AUDIO
TITLE "Quiereme y veras"
PERFORMER "Cesar Lopez y Habana Ensemble"
INDEX 00 06:51:39
FILE "Cesar Lopez y Habana Ensemble - Clasicos de Cuba [2007] [FLAC]\02- Quiereme y veras.wav" WAVE
INDEX 01 00:00:00
TRACK 03 AUDIO
TITLE "Tu no sospechas"
PERFORMER "Cesar Lopez y Habana Ensemble"
INDEX 00 05:43:65
FILE "Cesar Lopez y Habana Ensemble - Clasicos de Cuba [2007] [FLAC]\03- Tu no sospechas.wav" WAVE
INDEX 01 00:00:00
TRACK 04 AUDIO
TITLE "Llanto de luna"
PERFORMER "Cesar Lopez y Habana Ensemble"
INDEX 00 04:31:18
FILE "Cesar Lopez y Habana Ensemble - Clasicos de Cuba [2007] [FLAC]\04- Llanto de luna.wav" WAVE
INDEX 01 00:00:00
TRACK 05 AUDIO
TITLE "En nosotros"
PERFORMER "Cesar Lopez y Habana Ensemble"
INDEX 00 06:40:19
FILE "Cesar Lopez y Habana Ensemble - Clasicos de Cuba [2007] [FLAC]\05- En nosotros.wav" WAVE
INDEX 01 00:00:00
TRACK 06 AUDIO
TITLE "Tu mi desengano"
PERFORMER "Cesar Lopez y Habana Ensemble"
INDEX 00 06:41:53
FILE "Cesar Lopez y Habana Ensemble - Clasicos de Cuba [2007] [FLAC]\06- Tu mi desengano.wav" WAVE
INDEX 01 00:00:00
TRACK 07 AUDIO
TITLE "La tarde"
PERFORMER "Cesar Lopez y Habana Ensemble"
INDEX 00 03:56:10
FILE "Cesar Lopez y Habana Ensemble - Clasicos de Cuba [2007] [FLAC]\07- La tarde.wav" WAVE
INDEX 01 00:00:00
TRACK 08 AUDIO
TITLE "Noche cubana"
PERFORMER "Cesar Lopez y Habana Ensemble"
INDEX 00 06:18:23
FILE "Cesar Lopez y Habana Ensemble - Clasicos de Cuba [2007] [FLAC]\08- Noche cubana.wav" WAVE
INDEX 01 00:00:00
TRACK 09 AUDIO
TITLE "Scherezada"
PERFORMER "Cesar Lopez y Habana Ensemble"
INDEX 00 05:21:15
FILE "Cesar Lopez y Habana Ensemble - Clasicos de Cuba [2007] [FLAC]\09- Scherezada.wav" WAVE
INDEX 01 00:00:00
Доп. информация: Источник: TPB, релизер pastafari.
 
описание
Cuban Music Awards Cubadisco 2008
- Best Instrumental album.
Irakere's former sax player with his band live in concert.
Brought to you by TQMP
The Quality Music Project
Recorded live at the Amadeo Roldan Theater in Havana on March 25, 2007,
Cesar Lopez' group Havana Ensemble took center stage with the backing of the
Havana Chamber Orquestra under the direction of Ivan del Prado. Clasicos de
Cuba was conceived from the top down as a CD in which style, respect and
virtuosity balanced to build a convincing artistic image.
Starting with classics of Cuban music, the saxophonist weaves a rosary of
melodic motifs silhouetted against the subtly of a carefully elaborated
harmonic sound without excesses. The soloist and the band play Rosa mustia
by Angel Diaz, Quiereme y veras by Jose Antonio Mendez, Tu no sospechas by
Marta Valdes, Llanto de luna by Julio Gutierrez, En nosotros by Tania
Castellanos, Tu mi desengaсo by Pablo Milanes, La tarde by Sindo Garay,
Noche cubana by Cesar Portillo de la Luz and Scherezada by Piloto and Vera.
The jazz leanings of Cesar -who had a prodigal career with Irakere and
pianist Chucho Valdes and later put together Habana Ensemble- come through
on different parts of the album. However what has distinguished him most is
his unique ways of making his instrument sing with the feeling of good
minstrels.
-- Cubanews
Artwork (300dpi scan), EAC log and CUE sheet included.
Enjoy, seed and inhale!
Legalise it!
Pastafari Cubensis
По всем вопросам пишите личное сообщение пользователю M0p94ok.
06:56
206
Нет комментариев. Ваш будет первым!