Поиск

(Cuban Jazz, Fusion) Diego El Cigala - Dos Lagrimas - 2008, FLAC (tracks+.cue), lossless

Треклист:
Diego El Cigala - Dos Lagrimas
Жанр: Cuban Jazz, Fusion
Год выпуска диска: 2008
Аудио кодек: FLAC
Тип рипа: tracks+.cue
Битрейт аудио: lossless
Продолжительность: 38 мин 25 сек
Трэклист:
01. Si te contara {3:17}
02. Dos cruces {2:49}
03. Bravo {3:12}
04. Dos gardenias {3:30}
05. Compromiso {3:10}
06. El día que nací yo {4:11}
07. Historia de un amor {3:16}
08. Caruso {3:25}
09. Compasión {3:38}
10. María de la O {3:54}
11. Te extraño {4:03}
 
лог EAC
Exact Audio Copy V0.99 prebeta 4 from 23. January 2008
EAC extraction logfile from 7. March 2009, 0:29
Diego El Cigala / Dos Lбgrimas
Used drive : TSSTcorpCDDVDW TS-H653N Adapter: 2 ID: 2
Read mode : Secure
Utilize accurate stream : Yes
Defeat audio cache : Yes
Make use of C2 pointers : No
Read offset correction : 6
Overread into Lead-In and Lead-Out : No
Fill up missing offset samples with silence : Yes
Delete leading and trailing silent blocks : No
Null samples used in CRC calculations : Yes
Used interface : Native Win32 interface for Win NT & 2000
Gap handling : Appended to previous track
Used output format : User Defined Encoder
Selected bitrate : 1024 kBit/s
Quality : High
Add ID3 tag : No
Command line compressor : C:\Program Files\FLAC -\flac.exe
Additional command line options : -5 -V -T "artist=%a" -T "title=%t" -T "album=%g" -T "date=%y" -T "tracknumber=%n" -T "genre=%m" -T comment="shared by pastafari cubensis" %s
TOC of the extracted CD
Track | Start | Length | Start sector | End sector
---------------------------------------------------------
1 | 0:00.00 | 3:16.48 | 0 | 14747
2 | 3:16.48 | 2:48.73 | 14748 | 27420
3 | 6:05.46 | 3:11.50 | 27421 | 41795
4 | 9:17.21 | 3:30.30 | 41796 | 57575
5 | 12:47.51 | 3:10.26 | 57576 | 71851
6 | 15:58.02 | 4:11.18 | 71852 | 90694
7 | 20:09.20 | 3:15.71 | 90695 | 105390
8 | 23:25.16 | 3:24.40 | 105391 | 120730
9 | 26:49.56 | 3:37.64 | 120731 | 137069
10 | 30:27.45 | 3:54.31 | 137070 | 154650
11 | 34:22.01 | 4:03.19 | 154651 | 172894
Track 1
Filename C:\CD_buffer\Diego El Cigala - Dos Lбgrimas [2008] [FLAC]\01- Si te contara.wav
Pre-gap length 0:00:02.00
Peak level 85.7 %
Track quality 100.0 %
Test CRC B6AF8245
Copy CRC B6AF8245
Track not present in AccurateRip database
Copy OK
Track 2
Filename C:\CD_buffer\Diego El Cigala - Dos Lбgrimas [2008] [FLAC]\02- Dos cruces.wav
Peak level 85.7 %
Track quality 100.0 %
Test CRC 26EC843D
Copy CRC 26EC843D
Track not present in AccurateRip database
Copy OK
Track 3
Filename C:\CD_buffer\Diego El Cigala - Dos Lбgrimas [2008] [FLAC]\03- Bravo.wav
Peak level 85.7 %
Track quality 100.0 %
Test CRC 854F901D
Copy CRC 854F901D
Track not present in AccurateRip database
Copy OK
Track 4
Filename C:\CD_buffer\Diego El Cigala - Dos Lбgrimas [2008] [FLAC]\04- Dos gardenias.wav
Peak level 85.7 %
Track quality 100.0 %
Test CRC AD7FDC12
Copy CRC AD7FDC12
Track not present in AccurateRip database
Copy OK
Track 5
Filename C:\CD_buffer\Diego El Cigala - Dos Lбgrimas [2008] [FLAC]\05- Compromiso.wav
Peak level 85.7 %
Track quality 100.0 %
Test CRC DED25A17
Copy CRC DED25A17
Track not present in AccurateRip database
Copy OK
Track 6
Filename C:\CD_buffer\Diego El Cigala - Dos Lбgrimas [2008] [FLAC]\06- El dнa que nacн yo.wav
Peak level 85.7 %
Track quality 100.0 %
Test CRC 2D8524E3
Copy CRC 2D8524E3
Track not present in AccurateRip database
Copy OK
Track 7
Filename C:\CD_buffer\Diego El Cigala - Dos Lбgrimas [2008] [FLAC]\07- Historia de un amor.wav
Peak level 82.8 %
Track quality 100.0 %
Test CRC 62BC605A
Copy CRC 62BC605A
Track not present in AccurateRip database
Copy OK
Track 8
Filename C:\CD_buffer\Diego El Cigala - Dos Lбgrimas [2008] [FLAC]\08- Caruso.wav
Peak level 85.7 %
Track quality 99.9 %
Test CRC 23206B75
Copy CRC 23206B75
Track not present in AccurateRip database
Copy OK
Track 9
Filename C:\CD_buffer\Diego El Cigala - Dos Lбgrimas [2008] [FLAC]\09- Compasiуn.wav
Peak level 85.7 %
Track quality 100.0 %
Test CRC CFA9A34B
Copy CRC CFA9A34B
Track not present in AccurateRip database
Copy OK
Track 10
Filename C:\CD_buffer\Diego El Cigala - Dos Lбgrimas [2008] [FLAC]\10- Marнa de la O.wav
Peak level 79.1 %
Track quality 99.9 %
Test CRC 0473A362
Copy CRC 0473A362
Track not present in AccurateRip database
Copy OK
Track 11
Filename C:\CD_buffer\Diego El Cigala - Dos Lбgrimas [2008] [FLAC]\11- Te extraсo.wav
Peak level 85.7 %
Track quality 100.0 %
Test CRC EDA5736A
Copy CRC EDA5736A
Track not present in AccurateRip database
Copy OK
None of the tracks are present in the AccurateRip database
No errors occurred
End of status report
 
лог Audiocheker
AUDIOCHECKER v2.0 beta (build 457) - by Dester - opdester@freemail.hu
~~~~~~~~~~~~~~~~~~~~~~~~~~~~~~~~~~
Started at: среда, 01. 07. 2009. - 9:34.40
11 files found
01 -===- I:\- раздаю -\Diego_El_Cigala_-_Dos_Lagrimas_(2008)_[rutracker.org]\01- Si te contara.flac
Extracted successfully
Conclusion: this track is CDDA with probability 100%
Tempfile successfully deleted.
02 -===- I:\- раздаю -\Diego_El_Cigala_-_Dos_Lagrimas_(2008)_[rutracker.org]\02- Dos cruces.flac
Extracted successfully
Conclusion: this track is CDDA with probability 100%
Tempfile successfully deleted.
03 -===- I:\- раздаю -\Diego_El_Cigala_-_Dos_Lagrimas_(2008)_[rutracker.org]\03- Bravo.flac
Extracted successfully
Conclusion: this track is CDDA with probability 100%
Tempfile successfully deleted.
04 -===- I:\- раздаю -\Diego_El_Cigala_-_Dos_Lagrimas_(2008)_[rutracker.org]\04- Dos gardenias.flac
Extracted successfully
Conclusion: this track is CDDA with probability 99%
Tempfile successfully deleted.
05 -===- I:\- раздаю -\Diego_El_Cigala_-_Dos_Lagrimas_(2008)_[rutracker.org]\05- Compromiso.flac
Extracted successfully
Conclusion: this track is CDDA with probability 100%
Tempfile successfully deleted.
06 -===- I:\- раздаю -\Diego_El_Cigala_-_Dos_Lagrimas_(2008)_[rutracker.org]\06- El dia que naci yo.flac
Extracted successfully
Conclusion: this track is CDDA with probability 100%
Tempfile successfully deleted.
07 -===- I:\- раздаю -\Diego_El_Cigala_-_Dos_Lagrimas_(2008)_[rutracker.org]\07- Historia de un amor.flac
Extracted successfully
Conclusion: this track is CDDA with probability 100%
Tempfile successfully deleted.
08 -===- I:\- раздаю -\Diego_El_Cigala_-_Dos_Lagrimas_(2008)_[rutracker.org]\08- Caruso.flac
Extracted successfully
Conclusion: this track is CDDA with probability 99%
Tempfile successfully deleted.
09 -===- I:\- раздаю -\Diego_El_Cigala_-_Dos_Lagrimas_(2008)_[rutracker.org]\09- Compasion.flac
Extracted successfully
Conclusion: this track is CDDA with probability 100%
Tempfile successfully deleted.
10 -===- I:\- раздаю -\Diego_El_Cigala_-_Dos_Lagrimas_(2008)_[rutracker.org]\10- Maria de la O.flac
Extracted successfully
Conclusion: this track is CDDA with probability 100%
Tempfile successfully deleted.
11 -===- I:\- раздаю -\Diego_El_Cigala_-_Dos_Lagrimas_(2008)_[rutracker.org]\11- Te extrano.flac
Extracted successfully
Conclusion: this track is CDDA with probability 100%
Tempfile successfully deleted.
This album (Diego_El_Cigala_-_Dos_Lagrimas_(2008)_[rutracker.org]) seems to be CDDA with probability 99,82%
Finished at: среда, 01. 07. 2009. - 9:43.12 (operation time: 0:08.31)
Доп. информация: Источник: TPB, релизер pastafari.
 
описание
Much awaited second part to "Lagrimas Negras", a huge hit of Latin-flamenco fusion, the album that shot Diego El Cigala to fame with a million copies sold in 2003.
Brought to you by TQMP
The Quality Music Project
The new album 'Dos lagrimas', continues along the lines of his previous encounter with traditional latin music, but this time without Bebo Valdes. The piano sounding on this new album is that of veteran octogenarian musician Guillermo Rubalcaba, another living legend of traditional Cuban music. The 'group' also includes French accordion player Richard Galiano, Reinaldo Creagh - singer of La Vieja Trova Santiaguera -, and renowned Cuban percussionists Changuito and Tata Guines. Also collaborating are other Cuban musicians such as trumpet player Manuel Machado and contrabass player Yelsy Heredia, Catalan pianist Jaime Calabuch Jumitus, Jerez-born guitarist Diego del Morao and Madrilenian percussionist Sabu Porrina.
The repertoire on the album, self-produced by the cantaor, includes boleros, chachacha, copla and tango. He offers new versions of songs such as the boleros 'Dos Gardenias' and 'Compromiso' by Antonio Machin, and the coplas 'Marнa de la O' by Rafael de Leon and 'Dos cruces' by Antonio Molina. One of the surprises on the album is 'Caruso' by Lucio Dalla, a song which is turned into a mestizo Argentinean tango.
-- flamenco-world.com
Artwork, EAC log and CUE sheet included.
Format: FLAC (Free Lossless Audio Codec)
http://flac.sourceforge.net/index.html
Enjoy, seed and inhale!
Legalise it!
Pastafari Cubensis
По всем вопросам пишите личное сообщение пользователю M0p94ok.
06:55
260
Нет комментариев. Ваш будет первым!