Поиск

(Brazilian Jazz / Vocal Jazz) Luciana Souza - Tide - 2009, FLAC (tracks+.cue), lossless

(Brazilian Jazz / Vocal Jazz) Luciana Souza - Tide - 2009, FLAC (tracks+.cue), lossless
Треклист:
Luciana Souza - Tide
Жанр: Brazilian Jazz / Vocal Jazz
Лейбл: Verve
Год выпуска : 2009
Аудио кодек: FLAC
Тип рипа: tracks+.cue
Битрейт аудио: lossless
Продолжительность: 00:42:41
Рип: What CD


01. Adeus America & Eu Quero Um Samba (5:05)
02. Fire And Wood (5:17)
03. Our Gilded Home (3:21)
04. Love - Poem 65 (3:49)
05. Circus Life (3:15)
06. Once Again (4:59)
07. Tide (6:18)
08. Sorriu Para Mim (3:46)
09. Chuva (4:34)
10. Amulet (2:18)

 
XLD
X Lossless Decoder version 20090320 (105.1)
XLD extraction logfile from 2009-06-27 16:48:19 -0700
Luciana Souza / Louciana Souza 09 Tide
Used drive : MATSHITA DVD-R UJ-857D (revision KBV9)
Use cdparanoia mode : YES (CDParanoia III 10.2 engine)
Disable audio cache : OK for the drive with cache less than 2750KB
Make use of C2 pointers : NO
Read offset correction : 102
Max retry count : 100
TOC of the extracted CD
Track | Start | Length | Start sector | End sector
---------------------------------------------------------
1 | 00:00:00 | 05:04:67 | 0 | 22866
2 | 05:04:67 | 05:16:74 | 22867 | 46640
3 | 10:21:66 | 03:21:09 | 46641 | 61724
4 | 13:43:00 | 03:49:14 | 61725 | 78913
5 | 17:32:14 | 03:14:65 | 78914 | 93528
6 | 20:47:04 | 04:58:39 | 93529 | 115917
7 | 25:45:43 | 06:18:08 | 115918 | 144275
8 | 32:03:51 | 03:46:10 | 144276 | 161235
9 | 35:49:61 | 04:33:58 | 161236 | 181768
10 | 40:23:44 | 02:17:71 | 181769 | 192114
Track 01
Filename : /torrent/Luciana Souza. 2009. Tide/01 Luciana Souza - Adeus America & Eu Quero Um Samba.flac
CRC32 hash (test run) : 0B45678B
CRC32 hash : 0B45678B
CRC32 hash (skip zero) : 463BB6A3
AccurateRip signature : 9E677D71
->Track not present in AccurateRip database.
Statistics
Read error : 0
Skipped (treated as error) : 0
Edge jitter error (maybe fixed) : 0
Atom jitter error (maybe fixed) : 0
Drift error (maybe fixed) : 0
Dropped bytes error (maybe fixed) : 0
Duplicated bytes error (maybe fixed) : 0
Inconsistency in error sectors : 0
Track 02
Filename : /torrent/Luciana Souza. 2009. Tide/02 Luciana Souza - Fire And Wood.flac
CRC32 hash (test run) : 67A77125
CRC32 hash : 67A77125
CRC32 hash (skip zero) : 163CFB3B
AccurateRip signature : 53A011BB
->Track not present in AccurateRip database.
Statistics
Read error : 0
Skipped (treated as error) : 0
Edge jitter error (maybe fixed) : 0
Atom jitter error (maybe fixed) : 0
Drift error (maybe fixed) : 0
Dropped bytes error (maybe fixed) : 0
Duplicated bytes error (maybe fixed) : 0
Inconsistency in error sectors : 0
Track 03
Filename : /torrent/Luciana Souza. 2009. Tide/03 Luciana Souza - Our Gilded Home.flac
CRC32 hash (test run) : 0173E904
CRC32 hash : 0173E904
CRC32 hash (skip zero) : 5648CAC0
AccurateRip signature : 1A0F8320
->Track not present in AccurateRip database.
Statistics
Read error : 0
Skipped (treated as error) : 0
Edge jitter error (maybe fixed) : 0
Atom jitter error (maybe fixed) : 0
Drift error (maybe fixed) : 0
Dropped bytes error (maybe fixed) : 0
Duplicated bytes error (maybe fixed) : 0
Inconsistency in error sectors : 0
Track 04
Filename : /torrent/Luciana Souza. 2009. Tide/04 Luciana Souza - Love - Poem 65.flac
CRC32 hash (test run) : 55837305
CRC32 hash : 55837305
CRC32 hash (skip zero) : C8054096
AccurateRip signature : 617FF90D
->Track not present in AccurateRip database.
Statistics
Read error : 0
Skipped (treated as error) : 0
Edge jitter error (maybe fixed) : 0
Atom jitter error (maybe fixed) : 0
Drift error (maybe fixed) : 0
Dropped bytes error (maybe fixed) : 0
Duplicated bytes error (maybe fixed) : 0
Inconsistency in error sectors : 0
Track 05
Filename : /torrent/Luciana Souza. 2009. Tide/05 Luciana Souza - Circus Life.flac
CRC32 hash (test run) : 805B1711
CRC32 hash : 805B1711
CRC32 hash (skip zero) : D3C2185F
AccurateRip signature : 4A0AE1CD
->Track not present in AccurateRip database.
Statistics
Read error : 0
Skipped (treated as error) : 0
Edge jitter error (maybe fixed) : 0
Atom jitter error (maybe fixed) : 0
Drift error (maybe fixed) : 0
Dropped bytes error (maybe fixed) : 0
Duplicated bytes error (maybe fixed) : 0
Inconsistency in error sectors : 0
Track 06
Filename : /torrent/Luciana Souza. 2009. Tide/06 Luciana Souza - Once Again.flac
CRC32 hash (test run) : 4623C3B9
CRC32 hash : 4623C3B9
CRC32 hash (skip zero) : 019155F3
AccurateRip signature : DB26ED2A
->Track not present in AccurateRip database.
Statistics
Read error : 0
Skipped (treated as error) : 0
Edge jitter error (maybe fixed) : 0
Atom jitter error (maybe fixed) : 0
Drift error (maybe fixed) : 0
Dropped bytes error (maybe fixed) : 0
Duplicated bytes error (maybe fixed) : 0
Inconsistency in error sectors : 0
Track 07
Filename : /torrent/Luciana Souza. 2009. Tide/07 Luciana Souza - Tide.flac
CRC32 hash (test run) : 8DF2FC9F
CRC32 hash : 8DF2FC9F
CRC32 hash (skip zero) : A30BB82C
AccurateRip signature : 7E5AE988
->Track not present in AccurateRip database.
Statistics
Read error : 0
Skipped (treated as error) : 0
Edge jitter error (maybe fixed) : 0
Atom jitter error (maybe fixed) : 0
Drift error (maybe fixed) : 0
Dropped bytes error (maybe fixed) : 0
Duplicated bytes error (maybe fixed) : 0
Inconsistency in error sectors : 0
Track 08
Filename : /torrent/Luciana Souza. 2009. Tide/08 Luciana Souza - Sorriu Para Mim.flac
CRC32 hash (test run) : F305BA8B
CRC32 hash : F305BA8B
CRC32 hash (skip zero) : 721B40CD
AccurateRip signature : A4DF5335
->Track not present in AccurateRip database.
Statistics
Read error : 0
Skipped (treated as error) : 0
Edge jitter error (maybe fixed) : 0
Atom jitter error (maybe fixed) : 0
Drift error (maybe fixed) : 0
Dropped bytes error (maybe fixed) : 0
Duplicated bytes error (maybe fixed) : 0
Inconsistency in error sectors : 0
Track 09
Filename : /torrent/Luciana Souza. 2009. Tide/09 Luciana Souza - Chuva.flac
CRC32 hash (test run) : 2466E235
CRC32 hash : 2466E235
CRC32 hash (skip zero) : 95F3005D
AccurateRip signature : D887C7D3
->Track not present in AccurateRip database.
Statistics
Read error : 0
Skipped (treated as error) : 0
Edge jitter error (maybe fixed) : 0
Atom jitter error (maybe fixed) : 0
Drift error (maybe fixed) : 0
Dropped bytes error (maybe fixed) : 0
Duplicated bytes error (maybe fixed) : 0
Inconsistency in error sectors : 0
Track 10
Filename : /torrent/Luciana Souza. 2009. Tide/10 Luciana Souza - Amulet.flac
CRC32 hash (test run) : C8984846
CRC32 hash : C8984846
CRC32 hash (skip zero) : BD4E66AC
AccurateRip signature : CC68CF9F
->Track not present in AccurateRip database.
Statistics
Read error : 0
Skipped (treated as error) : 0
Edge jitter error (maybe fixed) : 0
Atom jitter error (maybe fixed) : 0
Drift error (maybe fixed) : 0
Dropped bytes error (maybe fixed) : 0
Duplicated bytes error (maybe fixed) : 0
Inconsistency in error sectors : 0
No errors occurred
End of status report
 
CUE
TITLE "Louciana Souza 09 Tide"
PERFORMER "Luciana Souza"
CATALOG 0600753163085
REM GENRE "Jazz"
REM DATE 2009
FILE "01 Luciana Souza - Adeus America & Eu Quero Um Samba.wav" WAVE
TRACK 01 AUDIO
TITLE "Adeus America & Eu Quero Um Samba"
ISRC FRUM70803520
INDEX 01 00:00:00
TRACK 02 AUDIO
TITLE "Fire And Wood"
ISRC FRUM70803521
INDEX 00 05:03:47
FILE "02 Luciana Souza - Fire And Wood.wav" WAVE
INDEX 01 00:00:00
TRACK 03 AUDIO
TITLE "Our Gilded Home"
ISRC FRUM70803522
INDEX 00 05:15:37
FILE "03 Luciana Souza - Our Gilded Home.wav" WAVE
INDEX 01 00:00:00
TRACK 04 AUDIO
TITLE "Love - Poem 65"
ISRC FRUM70803523
INDEX 00 03:20:24
FILE "04 Luciana Souza - Love - Poem 65.wav" WAVE
INDEX 01 00:00:00
TRACK 05 AUDIO
TITLE "Circus Life"
ISRC FRUM70803524
INDEX 00 03:48:39
FILE "05 Luciana Souza - Circus Life.wav" WAVE
INDEX 01 00:00:00
TRACK 06 AUDIO
TITLE "Once Again"
ISRC FRUM70803525
INDEX 00 03:13:55
FILE "06 Luciana Souza - Once Again.wav" WAVE
INDEX 01 00:00:00
TRACK 07 AUDIO
TITLE "Tide"
ISRC FRUM70803527
INDEX 00 04:57:02
FILE "07 Luciana Souza - Tide.wav" WAVE
INDEX 01 00:00:00
TRACK 08 AUDIO
TITLE "Sorriu Para Mim"
ISRC FRUM70803526
INDEX 00 06:17:08
FILE "08 Luciana Souza - Sorriu Para Mim.wav" WAVE
INDEX 01 00:00:00
TRACK 09 AUDIO
TITLE "Chuva"
ISRC FRUM70803528
INDEX 00 03:44:48
FILE "09 Luciana Souza - Chuva.wav" WAVE
INDEX 01 00:00:00
TRACK 10 AUDIO
TITLE "Amulet"
ISRC FRUM70803529
INDEX 00 04:32:08
FILE "10 Luciana Souza - Amulet.wav" WAVE
INDEX 01 00:00:00
06:54
376
Нет комментариев. Ваш будет первым!