Поиск

2002 Abdullah Ibrahim (Dollar Brand) - African Magic {enja} [CD]

2002 Abdullah Ibrahim (Dollar Brand) - African Magic {enja} [CD]
Стили:

01. Blue Bolero (fragment 1) 0:26
02. Third Line Samba 2:54
03. Blue Bolero (fragment 2) 0:16
04. Blues For A Hip King 3:16
05. District Six 1:51
06. Tuang Guru 3:58
07. Blue Bolero (fragment 3) 0:14
08. Joan - Cape Town Flower 3:38
09. Pule 1:39
10. The Stride 3:11
11. Thaba Bhosigo 2:22
12. The Mountain 2:19
13. Machopi/Jabulani 0:41
14. Black Lightning 1:09
15. Duke 3:59
16. Solitude 0:16
17. Eleventh Hour 2:40
18. Blue Bolero (fragment 4) 0:14
19. In A Sentimental Mood 2:52
20. Moten Swing 0:33
21. For Coltrane 6:13
22. Whoza Mtwana 2:20
23. Tsakwe/Royal Blue 3:20
24. Blue Bolero 4:01
All compositions by Abdullah Ibrahim

Состав:
  • Abdullah Ibrahim (aka Dollar Brand) (Piano)
  • Belden Bullock (Double Bass)
  • Sipho Kunene (Drums)
Лог создания рипа
Exact Audio Copy V0.99 prebeta 4 from 23. January 2008
EAC extraction logfile from 29. June 2009, 13:59
Abdullah Ibrahim / African Magic
Used drive  : _NEC    DVD_RW ND-3500AG   Adapter: 0  ID: 0
Read mode               : Secure
Utilize accurate stream : Yes
Defeat audio cache      : Yes
Make use of C2 pointers : No
Read offset correction                      : 48
Overread into Lead-In and Lead-Out          : No
Fill up missing offset samples with silence : Yes
Delete leading and trailing silent blocks   : No
Null samples used in CRC calculations       : Yes
Used interface                              : Native Win32 interface for Win NT & 2000
Used output format              : User Defined Encoder
Selected bitrate                : 768 kBit/s
Quality                         : High
Add ID3 tag                     : No
Command line compressor         : C:\Program Files\Exact Audio Copy\FLAC\FLAC.EXE
Additional command line options : -6 -V -T "ARTIST=%a" -T "TITLE=%t" -T "ALBUM=%g" -T "DATE=%y" -T "TRACKNUMBER=%n" -T "GENRE=%m" -T "COMMENT=%e" %s -o %d
TOC of the extracted CD
     Track |   Start  |  Length  | Start sector | End sector
    ---------------------------------------------------------
        1  |  0:00.00 |  0:26.16 |         0    |     1965
        2  |  0:26.16 |  2:54.52 |      1966    |    15067
        3  |  3:20.68 |  0:16.63 |     15068    |    16330
        4  |  3:37.56 |  3:16.27 |     16331    |    31057
        5  |  6:54.08 |  1:51.29 |     31058    |    39411
        6  |  8:45.37 |  3:58.43 |     39412    |    57304
        7  | 12:44.05 |  0:14.60 |     57305    |    58414
        8  | 12:58.65 |  3:38.72 |     58415    |    74836
        9  | 16:37.62 |  1:39.64 |     74837    |    82325
       10  | 18:17.51 |  3:11.42 |     82326    |    96692
       11  | 21:29.18 |  2:22.69 |     96693    |   107411
       12  | 23:52.12 |  2:19.43 |    107412    |   117879
       13  | 26:11.55 |  0:41.01 |    117880    |   120955
       14  | 26:52.56 |  1:09.44 |    120956    |   126174
       15  | 28:02.25 |  3:59.42 |    126175    |   144141
       16  | 32:01.67 |  0:16.67 |    144142    |   145408
       17  | 32:18.59 |  2:40.71 |    145409    |   157479
       18  | 34:59.55 |  0:14.30 |    157480    |   158559
       19  | 35:14.10 |  2:52.18 |    158560    |   171477
       20  | 38:06.28 |  0:33.11 |    171478    |   173963
       21  | 38:39.39 |  6:13.45 |    173964    |   201983
       22  | 44:53.09 |  2:20.39 |    201984    |   212522
       23  | 47:13.48 |  3:20.24 |    212523    |   227546
       24  | 50:33.72 |  4:01.25 |    227547    |   245646
Range status and errors
Selected range
     Filename J:\eMusic\Rip\Abdullah Ibrahim - African Magic.wav
     Peak level 99.2 %
     Range quality 99.9 %
     Copy CRC 6C0ACFC1
     Copy OK
No errors occurred
AccurateRip summary
Track  1  accurately ripped (confidence 8)  [5F8672EF]
Track  2  accurately ripped (confidence 7)  [6267C699]
Track  3  accurately ripped (confidence 7)  [2035E02A]
Track  4  accurately ripped (confidence 7)  [81E0B1A0]
Track  5  accurately ripped (confidence 7)  [38E43615]
Track  6  accurately ripped (confidence 7)  [14976C45]
Track  7  accurately ripped (confidence 7)  [CADF68B0]
Track  8  accurately ripped (confidence 7)  [5599D795]
Track  9  accurately ripped (confidence 7)  [6D676D8E]
Track 10  accurately ripped (confidence 8)  [D2940472]
Track 11  accurately ripped (confidence 7)  [BD748557]
Track 12  accurately ripped (confidence 7)  [9298CCBD]
Track 13  accurately ripped (confidence 7)  [0CC1F5B2]
Track 14  accurately ripped (confidence 7)  [81E45FD9]
Track 15  accurately ripped (confidence 6)  [92E83787]
Track 16  accurately ripped (confidence 7)  [3E585494]
Track 17  accurately ripped (confidence 7)  [379FAE6B]
Track 18  accurately ripped (confidence 7)  [08CC8939]
Track 19  accurately ripped (confidence 7)  [785EA12D]
Track 20  accurately ripped (confidence 7)  [92BB851D]
Track 21  accurately ripped (confidence 7)  [48F44282]
Track 22  accurately ripped (confidence 7)  [D6C9072D]
Track 23  accurately ripped (confidence 7)  [3A1FAA2B]
Track 24  accurately ripped (confidence 7)  [7FC4C187]
All tracks accurately ripped
End of status report
07:54
607
Нет комментариев. Ваш будет первым!