Поиск

(Fusion, Jewish Music, Dub) David Gould - Adonai in Dub {Tzadik} - 2001, FLAC (image+.cue), lossless

(Fusion, Jewish Music, Dub) David Gould - Adonai in Dub {Tzadik} - 2001, FLAC (image+.cue), lossless
Треклист:
David Gould
Adonai in Dub


Жанр: Fusion, Jewish Music, Dub
Год выпуска диска: 2001
Производитель диска: USA
Аудио кодек: FLAC
Тип рипа: image+.cue
Битрейт аудио: lossless
Продолжительность: 47:30
David "Solid" Gould - bass, vocals (6-10), piano (7,8), percussion (9)
Nathan "Silas" Richardson - guitar, organ, clavinet, piano (3), percussion (2,3,6,7,9), nylon string acoustic guitar (8)
Tommy Bennett - drums
Alex "Ace" Beram - trombone (1-4), percussion (2,3,9)
Brian Thomas - trombone (7,10)
Lee Hamilton - tenor saxophone (1-4,7,10)
Christofer "C$" Welter - trumpet, piano (3)
Michael O'Connor - solo tenor saxophone (1,2,7,10), flute (2), melodica (6)
Ken Field - flute (6,8)
Chris Hansen - percussion (2,6,7,9)
Dave Sacca - guitar (6)
Craig Akira Fujita - vocals (1,8,10)
Amy Glicklich - vocals (4,8-10)
1. Hinei Ma Tov Dub - 3:10
2. Etz Chayim Hee Dub - 8:15
3. Leha Dodi Dub - 5:19
4. L'Dor Vador Dub - 4:19
5. Siman Dub - 4:48
6. Adonai Noise Dub - 3:57
7. Sim Shalom Dub - 3:56
8. Adon Olam Dub - 3:42
9. V'Nemar Dybbuk Dub - 6:12
10. Yigdal Dub - 3:16
All songs arranged by David "Solid" Gould
Produced by David "Solid" Gould
Executive producer - John Zorn
Tracks 6,7,8,10 recorded April-August 2000 at Trama Studios, Brookline, MA by John Trama
Tracks 1-5,9 recorded April-May 2001 at Waltz Audio, Boston, MA by Matt Hennessy
Dub remix by Jamie Saft
2001, Tzadik
TZ 7156
 
EAC extraction logfile from 20. October 2007, 22:58
Exact Audio Copy V0.99 prebeta 3 from 28. July 2007
EAC extraction logfile from 20. October 2007, 22:58
David Gould / Adonai In Dub
Used drive : YAMAHA CRW-F1S Adapter: 5 ID: 1
Read mode : Secure
Utilize accurate stream : Yes
Defeat audio cache : Yes
Make use of C2 pointers : No
Read offset correction : 733
Overread into Lead-In and Lead-Out : Yes
Fill up missing offset samples with silence : Yes
Delete leading and trailing silent blocks : No
Null samples used in CRC calculations : Yes
Used interface : Installed external ASPI interface
Used output format : User Defined Encoder
Selected bitrate : 1024 kBit/s
Quality : High
Add ID3 tag : No
Command line compressor : C:\Program Files\WavPack\wavpack4.41.exe
Additional command line options : -hmx6d -w "RELEASER=SecToid from A.C." -w "URL=http://www.HQShare.Net/" -w "COMMENT=Released on eD2k network by SecTa - www.HQShare.Net" %s %d
TOC of the extracted CD
Track | Start | Length | Start sector | End sector
---------------------------------------------------------
1 | 0:00.00 | 3:39.73 | 0 | 16497
2 | 3:39.73 | 8:14.39 | 16498 | 53586
3 | 11:54.37 | 5:19.58 | 53587 | 77569
4 | 17:14.20 | 4:19.36 | 77570 | 97030
5 | 21:33.56 | 4:49.74 | 97031 | 118779
6 | 26:23.55 | 3:58.11 | 118780 | 136640
7 | 30:21.66 | 3:57.14 | 136641 | 154429
8 | 34:19.05 | 3:42.37 | 154430 | 171116
9 | 38:01.42 | 6:12.73 | 171117 | 199089
10 | 44:14.40 | 3:16.18 | 199090 | 213807
Range status and errors
Selected range
Filename F:\Ripzz\David Gould - Adonai In Dub.wav
Peak level 100.0 %
Range quality 99.9 %
Test CRC B65093F5
Copy CRC B65093F5
Copy OK
No errors occurred
AccurateRip summary
Track 1 not present in database
Track 2 not present in database
Track 3 not present in database
Track 4 not present in database
Track 5 not present in database
Track 6 not present in database
Track 7 not present in database
Track 8 not present in database
Track 9 not present in database
Track 10 not present in database
None of the tracks are present in the AccurateRip database
End of status report
Рип с HQShare (SecTa).
Это, конечно, не совсем джаз (вернее, совсем не джаз), но из-за Tzadik и Jamie Saft я считаю этот раздел более подходящим для раздачи этого диска.
В конце концов "Black Shabbis" я тоже видел в "Зарубежном джазе"
07:58
218
Нет комментариев. Ваш будет первым!