Поиск

(Post-Bop) [CD] Jarod Bufe - New Spaces - 2018, FLAC (tracks+.cue), lossless

(Post-Bop) [CD] Jarod Bufe - New Spaces - 2018, FLAC (tracks+.cue), lossless
Битрейт аудио:
lossless
Треклист:
Jarod Bufe - New Spaces
Жанр: Post-Bop
Носитель: CD
Год издания: 2018
Издатель (лейбл): OA2 Records
Номер по каталогу: OA2 22158
Аудиокодек: FLAC (*.flac)
Тип рипа: tracks+.cue
Битрейт аудио: lossless
Продолжительность: 00:46:06
Источник: www
Наличие сканов в содержимом раздачи: нет

Jarod Bufe - tenor saxophone
Tim Stine - guitar
Matt Ulery - bass
Jon Deitemyer - drums

01. Pushing Back the Darkness (06:14)
02. In the Next Room (05:22)
03. Begin Again (05:34)
04. Just Not Him (05:44)
05. Basement Reality (05:43)
06. Possibilities (06:18)
07. Climbing (06:16)
08. The Journey (04:51)

 
Лог создания рипа
Exact Audio Copy V1.3 from 2. September 2016
EAC extraction logfile from 10. March 2019, 15:39
Jarod Bufe / New Spaces
Used drive : MATSHITADVD-RAM UJ8B0 Adapter: 1 ID: 0
Read mode : Secure
Utilize accurate stream : Yes
Defeat audio cache : Yes
Make use of C2 pointers : No
Read offset correction : 102
Overread into Lead-In and Lead-Out : No
Fill up missing offset samples with silence : Yes
Delete leading and trailing silent blocks : No
Null samples used in CRC calculations : Yes
Used interface : Native Win32 interface for Win NT & 2000
Gap handling : Appended to previous track
Used output format : User Defined Encoder
Selected bitrate : 1024 kBit/s
Quality : High
Add ID3 tag : No
Command line compressor : C:\Program Files (x86)\Exact Audio Copy\Flac\flac.exe
Additional command line options : -8 -V -T "ARTIST=%artist%" -T "TITLE=%title%" -T "ALBUM=%albumtitle%" -T "DATE=%year%" -T "TRACKNUMBER=%tracknr%" -T "GENRE=%genre%" -T "PERFORMER=%albuminterpret%" -T "COMPOSER=%composer%" %haslyrics%--tag-from-file=LYRICS="%lyricsfile%"%haslyrics% -T "ALBUMARTIST=%albumartist%" -T "DISCNUMBER=%cdnumber%" -T "TOTALDISCS=%totalcds%" -T "TOTALTRACKS=%numtracks%" -T "COMMENT=%comment%" %source% -o %dest%
TOC of the extracted CD
Track | Start | Length | Start sector | End sector
---------------------------------------------------------
1 | 0:00.00 | 6:14.65 | 0 | 28114
2 | 6:14.65 | 5:22.66 | 28115 | 52330
3 | 11:37.56 | 5:34.02 | 52331 | 77382
4 | 17:11.58 | 5:44.20 | 77383 | 103202
5 | 22:56.03 | 5:43.73 | 103203 | 129000
6 | 28:40.01 | 6:18.68 | 129001 | 157418
7 | 34:58.69 | 6:16.53 | 157419 | 185671
8 | 41:15.47 | 4:51.28 | 185672 | 207524
Track 1
Filename C:\Users\Public\Music\Jarod Bufe - New Spaces (2018) {OA2 Records 22158} [CDFLAC]\01 - Pushing Back the Darkness.wav
Pre-gap length 0:00:02.00
Peak level 85.0 %
Extraction speed 1.2 X
Track quality 100.0 %
Test CRC A36C68BB
Copy CRC A36C68BB
Track not present in AccurateRip database
Copy OK
Track 2
Filename C:\Users\Public\Music\Jarod Bufe - New Spaces (2018) {OA2 Records 22158} [CDFLAC]\02 - In the Next Room.wav
Peak level 94.2 %
Extraction speed 1.4 X
Track quality 100.0 %
Test CRC 63E174BA
Copy CRC 63E174BA
Track not present in AccurateRip database
Copy OK
Track 3
Filename C:\Users\Public\Music\Jarod Bufe - New Spaces (2018) {OA2 Records 22158} [CDFLAC]\03 - Begin Again.wav
Peak level 100.0 %
Extraction speed 1.6 X
Track quality 100.0 %
Test CRC 855A79F0
Copy CRC 855A79F0
Track not present in AccurateRip database
Copy OK
Track 4
Filename C:\Users\Public\Music\Jarod Bufe - New Spaces (2018) {OA2 Records 22158} [CDFLAC]\04 - Just Not Him.wav
Peak level 92.2 %
Extraction speed 1.6 X
Track quality 99.9 %
Test CRC C89840B2
Copy CRC C89840B2
Track not present in AccurateRip database
Copy OK
Track 5
Filename C:\Users\Public\Music\Jarod Bufe - New Spaces (2018) {OA2 Records 22158} [CDFLAC]\05 - Basement Reality.wav
Peak level 92.8 %
Extraction speed 1.7 X
Track quality 99.9 %
Test CRC 6D1CCE86
Copy CRC 6D1CCE86
Track not present in AccurateRip database
Copy OK
Track 6
Filename C:\Users\Public\Music\Jarod Bufe - New Spaces (2018) {OA2 Records 22158} [CDFLAC]\06 - Possibilities.wav
Peak level 93.0 %
Extraction speed 2.0 X
Track quality 100.0 %
Test CRC B5B34B7D
Copy CRC B5B34B7D
Track not present in AccurateRip database
Copy OK
Track 7
Filename C:\Users\Public\Music\Jarod Bufe - New Spaces (2018) {OA2 Records 22158} [CDFLAC]\07 - Climbing.wav
Peak level 99.5 %
Extraction speed 2.1 X
Track quality 100.0 %
Test CRC 5B22961D
Copy CRC 5B22961D
Track not present in AccurateRip database
Copy OK
Track 8
Filename C:\Users\Public\Music\Jarod Bufe - New Spaces (2018) {OA2 Records 22158} [CDFLAC]\08 - The Journey.wav
Peak level 92.6 %
Extraction speed 2.2 X
Track quality 100.0 %
Test CRC 7344F784
Copy CRC 7344F784
Track not present in AccurateRip database
Copy OK
None of the tracks are present in the AccurateRip database
No errors occurred
End of status report
---- CUETools DB Plugin V2.1.6
[CTDB TOCID: TAv6zzyiumPgkYa82uGTyYDEvr0-] disk not present in database
Submit result: TAv6zzyiumPgkYa82uGTyYDEvr0- has been uploaded
==== Log checksum 1DB53DC03CA04DB636EA32D852F7A56BD1A2B2573E9BC2980F186D9930811FE4 ====
 
Содержание индексной карты (.CUE)
REM GENRE Jazz
REM DATE 2018
REM DISCID 670ACF08
REM COMMENT "ExactAudioCopy v1.3"
PERFORMER "Jarod Bufe"
TITLE "New Spaces"
REM COMPOSER ""
FILE "01 - Pushing Back the Darkness.wav" WAVE
TRACK 01 AUDIO
TITLE "Pushing Back the Darkness"
PERFORMER "Jarod Bufe"
REM COMPOSER ""
INDEX 01 00:00:00
FILE "02 - In the Next Room.wav" WAVE
TRACK 02 AUDIO
TITLE "In the Next Room"
PERFORMER "Jarod Bufe"
REM COMPOSER ""
INDEX 01 00:00:00
FILE "03 - Begin Again.wav" WAVE
TRACK 03 AUDIO
TITLE "Begin Again"
PERFORMER "Jarod Bufe"
REM COMPOSER ""
INDEX 01 00:00:00
FILE "04 - Just Not Him.wav" WAVE
TRACK 04 AUDIO
TITLE "Just Not Him"
PERFORMER "Jarod Bufe"
REM COMPOSER ""
INDEX 01 00:00:00
FILE "05 - Basement Reality.wav" WAVE
TRACK 05 AUDIO
TITLE "Basement Reality"
PERFORMER "Jarod Bufe"
REM COMPOSER ""
INDEX 01 00:00:00
FILE "06 - Possibilities.wav" WAVE
TRACK 06 AUDIO
TITLE "Possibilities"
PERFORMER "Jarod Bufe"
REM COMPOSER ""
INDEX 01 00:00:00
FILE "07 - Climbing.wav" WAVE
TRACK 07 AUDIO
TITLE "Climbing"
PERFORMER "Jarod Bufe"
REM COMPOSER ""
INDEX 01 00:00:00
FILE "08 - The Journey.wav" WAVE
TRACK 08 AUDIO
TITLE "The Journey"
PERFORMER "Jarod Bufe"
REM COMPOSER ""
INDEX 01 00:00:00
Приватный:
Нет (DHT включён)
Размер:
270.13 Мб (283,250,598 байт) » файлов: 13
Участники:
0 раздают, 0 качают (0 участников всего)
Внешние участники:
--- [ Обновить ]
12:51
23
Нет комментариев. Ваш будет первым!