Поиск

2017 Joyce Yuille - Lady Be Good {Venus VHCD 1215} [WEB]

2017 Joyce Yuille - Lady Be Good {Venus VHCD 1215} [WEB]
Стили:
Страна-производитель диска (релиза):
Japan
Дата записи диска:
5, 6 июля 2016
Место записи:
Riverside Studio, Torino
Дата издания диска:
17 мая 2017
Издатель (лейбл):
Номер по каталогу:
VHCD-1215
Носитель:
WEB
Аудиокодек:
FLAC (*.flac)
Тип рипа:
tracks
Битрейт аудио:
lossless
Время звучания:
00:45:13
Наличие сканов:
только обложка
Треклист:

01    Solitude    
02    Beautiful Love    
03    I Didn't Know What Time It Was    
04    Teach Me Tonight    
05    Lady Be Good    
06    Just One Of Those Things    
07    I Can't Give You Anything But Love    
08    Sometimes I'm Happy    
09    Here's That Rainy Days    
10    September Song    
11    Cherokee

 
DRM.log

foobar2000 1.4.2 / Dynamic Range Meter 1.1.1
log date: 2019-03-11 20:24:57

--------------------------------------------------------------------------------
Analyzed: Joyce Yuille / Lady Be Good
--------------------------------------------------------------------------------

DR         Peak         RMS     Duration Track
--------------------------------------------------------------------------------
DR6       -0.18 dB   -10.12 dB      3:24 01-Solitude
DR8       -0.33 dB   -11.61 dB      6:21 02-Beautiful Love
DR7        0.00 dB    -9.43 dB      4:13 03-I Didn't Know What Time It Was
DR8       -0.37 dB   -10.55 dB      3:37 04-Teach Me Tonight
DR6       -0.29 dB    -8.31 dB      4:40 05-Lady Be Good
DR6       -0.21 dB    -7.30 dB      2:18 06-Just One of Those Things
DR7       -0.24 dB   -10.14 dB      4:39 07-I Can't Give You Anything But Love
DR7       -0.08 dB    -9.00 dB      3:25 08-Sometimes I'm Happy
DR8       -0.34 dB   -11.90 dB      5:21 09-Here's That Rainy Days
DR8       -0.17 dB    -9.97 dB      3:35 10-September Song
DR6       -0.25 dB    -7.40 dB      3:40 11-Cherokee
--------------------------------------------------------------------------------

Number of tracks:  11
Official DR value: DR7

Samplerate:        44100 Hz
Channels:          2
Bits per sample:   16
Bitrate:           946 kbps
Codec:             FLAC
================================================================================

Содержание индексной карты (.CUE)
REM DATE 2017
PERFORMER "Joyce Yuille"
TITLE "Lady Be Good"
FILE "01. Joyce Yuille - Solitude.flac" WAVE
  TRACK 01 AUDIO
    TITLE "Solitude"
    PERFORMER "Joyce Yuille"
    INDEX 01 00:00:00
FILE "02. Joyce Yuille - Beautiful Love.flac" WAVE
  TRACK 02 AUDIO
    TITLE "Beautiful Love"
    PERFORMER "Joyce Yuille"
    INDEX 01 00:00:00
FILE "03. Joyce Yuille - I Didn't Know What Time It Was.flac" WAVE
  TRACK 03 AUDIO
    TITLE "I Didn't Know What Time It Was"
    PERFORMER "Joyce Yuille"
    INDEX 01 00:00:00
FILE "04. Joyce Yuille - Teach Me Tonight.flac" WAVE
  TRACK 04 AUDIO
    TITLE "Teach Me Tonight"
    PERFORMER "Joyce Yuille"
    INDEX 01 00:00:00
FILE "05. Joyce Yuille - Lady Be Good.flac" WAVE
  TRACK 05 AUDIO
    TITLE "Lady Be Good"
    PERFORMER "Joyce Yuille"
    INDEX 01 00:00:00
FILE "06. Joyce Yuille - Just One of Those Things.flac" WAVE
  TRACK 06 AUDIO
    TITLE "Just One of Those Things"
    PERFORMER "Joyce Yuille"
    INDEX 01 00:00:00
FILE "07. Joyce Yuille - I Can't Give You Anything But Love.flac" WAVE
  TRACK 07 AUDIO
    TITLE "I Can't Give You Anything But Love"
    PERFORMER "Joyce Yuille"
    INDEX 01 00:00:00
FILE "08. Joyce Yuille - Sometimes I'm Happy.flac" WAVE
  TRACK 08 AUDIO
    TITLE "Sometimes I'm Happy"
    PERFORMER "Joyce Yuille"
    INDEX 01 00:00:00
FILE "09. Joyce Yuille - Here's That Rainy Days.flac" WAVE
  TRACK 09 AUDIO
    TITLE "Here's That Rainy Days"
    PERFORMER "Joyce Yuille"
    INDEX 01 00:00:00
FILE "10. Joyce Yuille - September Song.flac" WAVE
  TRACK 10 AUDIO
    TITLE "September Song"
    PERFORMER "Joyce Yuille"
    INDEX 01 00:00:00
FILE "11. Joyce Yuille - Cherokee.flac" WAVE
  TRACK 11 AUDIO
    TITLE "Cherokee"
    PERFORMER "Joyce Yuille"
    INDEX 01 00:00:00
Лог проверки качества
CUE Corrector v. 8.3.5 / b. 906 (Mar. 02, 2019)
————————————————————————————————————————————————————————————————————————
Joyce Yuille / Lady Be Good

Folder: 2017 Joyce Yuille - Lady Be Good {Venus VHCD 1215} [WEB]
Audio files:
    01. Joyce Yuille - Solitude.flac [03:23.933; FLAC • 814 kbps • 16 bit \ 44100 Hz • stereo; 19.80 MB (20 759 868 B)]
    02. Joyce Yuille - Beautiful Love.flac [06:21.067; FLAC • 819 kbps • 16 bit \ 44100 Hz • stereo; 37.25 MB (39 055 318 B)]
    03. Joyce Yuille - I Didn't Know What Time It Was.flac [04:13.373; FLAC • 927 kbps • 16 bit \ 44100 Hz • stereo; 28.02 MB (29 383 443 B)]
    04. Joyce Yuille - Teach Me Tonight.flac [03:36.960; FLAC • 760 kbps • 16 bit \ 44100 Hz • stereo; 19.67 MB (20 624 307 B)]
    05. Joyce Yuille - Lady Be Good.flac [04:40.387; FLAC • 934 kbps • 16 bit \ 44100 Hz • stereo; 31.22 MB (32 737 264 B)]
    06. Joyce Yuille - Just One of Those Things.flac [02:17.680; FLAC • 965 kbps • 16 bit \ 44100 Hz • stereo; 15.85 MB (16 624 515 B)]
    07. Joyce Yuille - I Can't Give You Anything But Love.flac [04:39.000; FLAC • 854 kbps • 16 bit \ 44100 Hz • stereo; 28.41 MB (29 790 664 B)]
    08. Joyce Yuille - Sometimes I'm Happy.flac [03:25.427; FLAC • 984 kbps • 16 bit \ 44100 Hz • stereo; 24.11 MB (25 279 138 B)]
    09. Joyce Yuille - Here's That Rainy Days.flac [05:20.933; FLAC • 754 kbps • 16 bit \ 44100 Hz • stereo; 28.88 MB (30 285 599 B)]
    10. Joyce Yuille - September Song.flac [03:34.680; FLAC • 904 kbps • 16 bit \ 44100 Hz • stereo; 23.16 MB (24 285 338 B)]
    11. Joyce Yuille - Cherokee.flac [03:39.893; FLAC • 952 kbps • 16 bit \ 44100 Hz • stereo; 24.96 MB (26 168 495 B)]

Accuracy: -m0

File 01. Joyce Yuille - Solitude                           - 100% CDDA [03:23:70]
File 02. Joyce Yuille - Beautiful Love                     - 100% CDDA [06:21:05]
File 03. Joyce Yuille - I Didn't Know What Time It Was     - 100% CDDA [04:13:28]
File 04. Joyce Yuille - Teach Me Tonight                   - 100% CDDA [03:36:72]
File 05. Joyce Yuille - Lady Be Good                       - 100% CDDA [04:40:29]
File 06. Joyce Yuille - Just One of Those Things           - 100% CDDA [02:17:51]
File 07. Joyce Yuille - I Can't Give You Anything But Love - 100% CDDA [04:39:00]
File 08. Joyce Yuille - Sometimes I'm Happy                - 100% CDDA [03:25:32]
File 09. Joyce Yuille - Here's That Rainy Days             -  99% CDDA [05:20:70]
File 10. Joyce Yuille - September Song                     - 100% CDDA [03:34:51]
File 11. Joyce Yuille - Cherokee                           - 100% CDDA [03:39:67]
————— Summary: —————
These tracks looks like CDDA with probability 100%.
————————————————————————————————————————————————————————————————————————

ANALYZER:
    auCDtect: CD records authenticity detector, version 0.8.2
    Copyright (c) 2004 Oleg Berngardt. All rights reserved.
    Copyright (c) 2004 Alexander Djourik. All rights reserved.

Time elapsed: 2 m 49 s
Log created at March 11, 2019 20:28:47

=== BBEB5C64802CD1182D9BF13FB1BCE16F803A7F7728977546206EF57F467F77C8 ===
Приватный:
Нет (DHT включён)
Размер:
281.49 Мб (295,162,052 байт) » файлов: 17
Участники:
1 раздают, 0 качают (1 участников всего)
Внешние участники:
--- [ Обновить ]
22:03
11
Нет комментариев. Ваш будет первым!