Поиск

2017 Anti-Elevator Mission - Ups And Downs {AEM 5639033396} [WEB]

2017 Anti-Elevator Mission - Ups And Downs {AEM 5639033396} [WEB]
Стили:
Страна-производитель диска (релиза):
USA
Дата записи диска:
17-18 января 2007
Место записи:
Peter Karl Recording Studio, Brooklyn, NY
Дата издания диска:
30 апреля 2017
Номер по каталогу:
5639033396
Носитель:
WEB
Аудиокодек:
FLAC (*.flac)
Тип рипа:
tracks
Битрейт аудио:
lossless
Наличие сканов:
только обложка
Треклист:

1. Iris 08:29    
2. Acid Reflex 06:40    
3. Tender, Supple, Untouchable 04:20    
4. Mind Funk 12:04    
5. Scunge 09:32    
6. Mop It Up 04:55    
7. Unhealthy Obsession 07:17    
8. Special Ed 07:03    
9. Please, Don't Stay 05:34

Доп. инфо: bandcamp.com

 
DRM.log

foobar2000 1.4.2 / Dynamic Range Meter 1.1.1
log date: 2019-03-11 23:40:43

--------------------------------------------------------------------------------
Analyzed: Anti-Elevator Mission / Ups and Downs
--------------------------------------------------------------------------------

DR         Peak         RMS     Duration Track
--------------------------------------------------------------------------------
DR12      -0.20 dB   -15.19 dB      8:29 01-Iris
DR11      -0.20 dB   -13.20 dB      6:40 02-Acid Reflex
DR13      -0.20 dB   -17.46 dB      4:21 03-Tender, Supple, Untouchable
DR9       -0.20 dB   -11.07 dB     12:04 04-Mind Funk
DR11      -0.20 dB   -13.77 dB      9:33 05-Scunge
DR11      -0.20 dB   -13.89 dB      4:56 06-Mop It Up
DR10      -0.20 dB   -14.66 dB      7:18 07-Unhealthy Obsession
DR11      -0.20 dB   -13.94 dB      7:04 08-Special Ed
DR14       0.00 dB   -17.20 dB      5:35 09-Please, Don't Stay
--------------------------------------------------------------------------------

Number of tracks:  9
Official DR value: DR11

Samplerate:        44100 Hz
Channels:          2
Bits per sample:   16
Bitrate:           748 kbps
Codec:             FLAC
================================================================================

Содержание индексной карты (.CUE)
REM DATE 2017
PERFORMER "Anti-Elevator Mission"
TITLE "Ups and Downs"
FILE "01. Iris.flac" WAVE
  TRACK 01 AUDIO
    TITLE "Iris"
    PERFORMER "Anti-Elevator Mission"
    INDEX 01 00:00:00
FILE "02. Acid Reflex.flac" WAVE
  TRACK 02 AUDIO
    TITLE "Acid Reflex"
    PERFORMER "Anti-Elevator Mission"
    INDEX 01 00:00:00
FILE "03. Tender, Supple, Untouchable.flac" WAVE
  TRACK 03 AUDIO
    TITLE "Tender, Supple, Untouchable"
    PERFORMER "Anti-Elevator Mission"
    INDEX 01 00:00:00
FILE "04. Mind Funk.flac" WAVE
  TRACK 04 AUDIO
    TITLE "Mind Funk"
    PERFORMER "Anti-Elevator Mission"
    INDEX 01 00:00:00
FILE "05. Scunge.flac" WAVE
  TRACK 05 AUDIO
    TITLE "Scunge"
    PERFORMER "Anti-Elevator Mission"
    INDEX 01 00:00:00
FILE "06. Mop It Up.flac" WAVE
  TRACK 06 AUDIO
    TITLE "Mop It Up"
    PERFORMER "Anti-Elevator Mission"
    INDEX 01 00:00:00
FILE "07. Unhealthy Obsession.flac" WAVE
  TRACK 07 AUDIO
    TITLE "Unhealthy Obsession"
    PERFORMER "Anti-Elevator Mission"
    INDEX 01 00:00:00
FILE "08. Special Ed.flac" WAVE
  TRACK 08 AUDIO
    TITLE "Special Ed"
    PERFORMER "Anti-Elevator Mission"
    INDEX 01 00:00:00
FILE "09. Please, Don't Stay.flac" WAVE
  TRACK 09 AUDIO
    TITLE "Please, Don't Stay"
    PERFORMER "Anti-Elevator Mission"
    INDEX 01 00:00:00
Лог проверки качества
CUE Corrector v. 8.3.5 / b. 906 (Mar. 02, 2019)
————————————————————————————————————————————————————————————————————————
Anti-Elevator Mission / Ups and Downs

Folder: 2017 Anti-Elevator Mission - Ups And Downs
Audio files:
    01. Iris.flac [08:29.080; FLAC • 865 kbps • 16 bit \ 44100 Hz • stereo; 52.53 MB (55 083 131 B)]
    02. Acid Reflex.flac [06:40.093; FLAC • 918 kbps • 16 bit \ 44100 Hz • stereo; 43.81 MB (45 937 369 B)]
    03. Tender, Supple, Untouchable.flac [04:20.973; FLAC • 671 kbps • 16 bit \ 44100 Hz • stereo; 20.89 MB (21 902 850 B)]
    04. Mind Funk.flac [12:04.067; FLAC • 983 kbps • 16 bit \ 44100 Hz • stereo; 84.90 MB (89 029 120 B)]
    05. Scunge.flac [09:32.533; FLAC • 842 kbps • 16 bit \ 44100 Hz • stereo; 57.52 MB (60 312 091 B)]
    06. Mop It Up.flac [04:55.600; FLAC • 918 kbps • 16 bit \ 44100 Hz • stereo; 32.36 MB (33 928 238 B)]
    07. Unhealthy Obsession.flac [07:17.733; FLAC • 759 kbps • 16 bit \ 44100 Hz • stereo; 39.63 MB (41 550 502 B)]
    08. Special Ed.flac [07:03.507; FLAC • 822 kbps • 16 bit \ 44100 Hz • stereo; 41.51 MB (43 526 164 B)]
    09. Please, Don't Stay.flac [05:34.853; FLAC • 755 kbps • 16 bit \ 44100 Hz • stereo; 30.15 MB (31 616 778 B)]

Accuracy: -m0

File 01. Iris                        - 100% CDDA [08:29:06]
File 02. Acid Reflex                 - 100% CDDA [06:40:07]
File 03. Tender, Supple, Untouchable - 100% CDDA [04:20:73]
File 04. Mind Funk                   - 100% CDDA [12:04:05]
File 05. Scunge                      - 100% CDDA [09:32:40]
File 06. Mop It Up                   - 100% CDDA [04:55:45]
File 07. Unhealthy Obsession         -  99% CDDA [07:17:55]
File 08. Special Ed                  -  99% CDDA [07:03:38]
File 09. Please, Don't Stay          - 100% CDDA [05:34:64]
————— Summary: —————
These tracks looks like CDDA with probability 100%.
————————————————————————————————————————————————————————————————————————

ANALYZER:
    auCDtect: CD records authenticity detector, version 0.8.2
    Copyright (c) 2004 Oleg Berngardt. All rights reserved.
    Copyright (c) 2004 Alexander Djourik. All rights reserved.

Time elapsed: 3 m 57 s
Log created at March 11, 2019 23:37:26

=== CC09F684F06F5B297B5B8F7B97C4547AC8AB11C47490AE543539D1E351922660 ===
Приватный:
Нет (DHT включён)
Размер:
404.00 Мб (423,628,587 байт) » файлов: 17
Участники:
6 раздают, 0 качают (6 участников всего)
Внешние участники:
--- [ Обновить ]
00:42
24
Нет комментариев. Ваш будет первым!