Поиск

2017 Black Motor - Branches {We Jazz WJC502} [WEB]

2017 Black Motor - Branches {We Jazz WJC502} [WEB]
Место записи:
JJ Studio, Tampere, Finland.
Дата издания диска:
2 июня 2017
Номер по каталогу:
We Jazz Records WJC502
Носитель:
WEB
Тип рипа:
tracks
Аудиокодек:
FLAC (*.flac)
Битрейт аудио:
lossless
Время звучания:
00:44:23
Наличие сканов:
только обложка
Страна-производитель диска (релиза):
Finland
Треклист:

01. But Not Willingly 04:03
02. At The Red End Of The World 04:05
03. Decision Jump 04:27
04. Blue Eyes Cryin' In The Rain 05:14
05. Branches (Citizen Music) 07:01
06. Tulee Paiva 04:41
07. Longer The Distance Sweeter The Sound 07:13

Доп. инфо: bandcamp.com

 
DRM.log

foobar2000 1.4.2 / Dynamic Range Meter 1.1.1
log date: 2019-03-12 11:06:11

--------------------------------------------------------------------------------
Analyzed: Black Motor / Branches
--------------------------------------------------------------------------------

DR         Peak         RMS     Duration Track
--------------------------------------------------------------------------------
DR11      -0.29 dB   -13.79 dB      4:03 01-But Not Willingly
DR11      -0.30 dB   -12.93 dB      4:05 02-At the Red End of the World
DR11      -0.10 dB   -13.29 dB      4:27 03-Decision Jump
DR10      -0.61 dB   -12.92 dB      5:14 04-Blue Eyes Cryin' in the Rain
DR11      -0.31 dB   -15.26 dB      7:01 05-Branches (Citizen Music)
DR11      -0.52 dB   -16.64 dB      6:21 06-Tulee Päivä
DR11      -0.12 dB   -14.66 dB      7:13 07-Longer the Distance, Sweeter the Sound
DR10      -0.59 dB   -14.94 dB      6:00 08-Letting Go (Was Part of the Plan)
--------------------------------------------------------------------------------

Number of tracks:  8
Official DR value: DR11

Samplerate:        44100 Hz
Channels:          2
Bits per sample:   16
Bitrate:           727 kbps
Codec:             FLAC
================================================================================

Содержание индексной карты (.CUE)
REM DATE 2017
PERFORMER "Black Motor"
TITLE "Branches"
FILE "1 - Black Motor - But Not Willingly.flac" WAVE
  TRACK 01 AUDIO
    TITLE "But Not Willingly"
    PERFORMER "Black Motor"
    INDEX 01 00:00:00
FILE "2 - Black Motor - At the Red End of the World.flac" WAVE
  TRACK 02 AUDIO
    TITLE "At the Red End of the World"
    PERFORMER "Black Motor"
    INDEX 01 00:00:00
FILE "3 - Black Motor - Decision Jump.flac" WAVE
  TRACK 03 AUDIO
    TITLE "Decision Jump"
    PERFORMER "Black Motor"
    INDEX 01 00:00:00
FILE "4 - Black Motor - Blue Eyes Cryin' in the Rain.flac" WAVE
  TRACK 04 AUDIO
    TITLE "Blue Eyes Cryin' in the Rain"
    PERFORMER "Black Motor"
    INDEX 01 00:00:00
FILE "5 - Black Motor - Branches (Citizen Music).flac" WAVE
  TRACK 05 AUDIO
    TITLE "Branches (Citizen Music)"
    PERFORMER "Black Motor"
    INDEX 01 00:00:00
FILE "6 - Black Motor - Tulee Päivä.flac" WAVE
  TRACK 06 AUDIO
    TITLE "Tulee Päivä"
    PERFORMER "Black Motor"
    INDEX 01 00:00:00
FILE "7 - Black Motor - Longer the Distance, Sweeter the Sound.flac" WAVE
  TRACK 07 AUDIO
    TITLE "Longer the Distance, Sweeter the Sound"
    PERFORMER "Black Motor"
    INDEX 01 00:00:00
FILE "8 - Black Motor - Letting Go (Was Part of the Plan).flac" WAVE
  TRACK 08 AUDIO
    TITLE "Letting Go (Was Part of the Plan)"
    PERFORMER "Black Motor"
    INDEX 01 00:00:00
Лог проверки качества
CUE Corrector v. 8.3.5 / b. 906 (Mar. 02, 2019)
————————————————————————————————————————————————————————————————————————
Black Motor / Branches

Folder: 2017 Black Motor - Branches {} [WEB]
Audio files:
    1 - Black Motor - But Not Willingly.flac [04:03.480; FLAC • 853 kbps • 16 bit \ 44100 Hz • stereo; 24.76 MB (25 960 235 B)]
    2 - Black Motor - At the Red End of the World.flac [04:05.293; FLAC • 817 kbps • 16 bit \ 44100 Hz • stereo; 23.91 MB (25 075 996 B)]
    3 - Black Motor - Decision Jump.flac [04:27.467; FLAC • 845 kbps • 16 bit \ 44100 Hz • stereo; 26.96 MB (28 266 537 B)]
    4 - Black Motor - Blue Eyes Cryin' in the Rain.flac [05:14.160; FLAC • 845 kbps • 16 bit \ 44100 Hz • stereo; 31.68 MB (33 217 264 B)]
    5 - Black Motor - Branches (Citizen Music).flac [07:00.667; FLAC • 785 kbps • 16 bit \ 44100 Hz • stereo; 39.38 MB (41 292 204 B)]
    6 - Black Motor - Tulee Päivä.flac [06:21.093; FLAC • 697 kbps • 16 bit \ 44100 Hz • stereo; 31.67 MB (33 208 019 B)]
    7 - Black Motor - Longer the Distance, Sweeter the Sound.flac [07:13.307; FLAC • 719 kbps • 16 bit \ 44100 Hz • stereo; 37.14 MB (38 947 491 B)]
    8 - Black Motor - Letting Go (Was Part of the Plan).flac [06:00.413; FLAC • 749 kbps • 16 bit \ 44100 Hz • stereo; 32.19 MB (33 758 254 B)]

Accuracy: -m0

File 1 - Black Motor - But Not Willingly                      -  95% MPEG [04:03:36]
File 2 - Black Motor - At the Red End of the World            -  95% MPEG [04:05:22]
File 3 - Black Motor - Decision Jump                          -  95% MPEG [04:27:35]
File 4 - Black Motor - Blue Eyes Cryin' in the Rain           -  95% MPEG [05:14:12]
File 5 - Black Motor - Branches (Citizen Music)               - 100% CDDA [07:00:50]
File 6 - Black Motor - Tulee Päivä                          - 100% CDDA [06:21:07]
File 7 - Black Motor - Longer the Distance, Sweeter the Sound - 100% CDDA [07:13:23]
File 8 - Black Motor - Letting Go (Was Part of the Plan)      - 100% CDDA [06:00:31]
————— Summary: —————
These tracks looks like CDDA with probability 100%.
————————————————————————————————————————————————————————————————————————

ANALYZER:
    auCDtect: CD records authenticity detector, version 0.8.2
    Copyright (c) 2004 Oleg Berngardt. All rights reserved.
    Copyright (c) 2004 Alexander Djourik. All rights reserved.

Time elapsed: 2 m 30 s
Log created at March 12, 2019 11:09:39

=== E7663AA08EDADF8E03FD214F379AC4B5F1AA8B49258652A4E287B114EEB95DAA ===
Приватный:
Нет (DHT включён)
Размер:
248.66 Мб (260,736,250 байт) » файлов: 14
Участники:
1 раздают, 0 качают (1 участников всего)
Внешние участники:
--- [ Обновить ]
Нет сидеров - пишите личное сообщение M0p94ok. Не нравятся торренты? Участники группы Pro-jazz Club могут заказать прямую ссылку на скачивание из облака.
No seeders - write a personal message to M0p94ok. Don't like torrents? Members of Pro-jazz Club group can order a direct download link from the cloud.
12:29
28
Нет комментариев. Ваш будет первым!