Поиск

2019 Larry Ochs, Nels Cline & Gerald Cleaver - What Is To Be Done {Clean Feed CF 500} [WEB]

2019 Larry Ochs, Nels Cline & Gerald Cleaver - What Is To Be Done {Clean Feed CF 500} [WEB]
Страна-производитель диска (релиза):
Portugal
Дата записи диска:
9 декабря 2016
Место записи:
Gallery5 Arts, Richmond, Virginia
Дата издания диска:
25 января 2019
Издатель (лейбл):
Номер по каталогу:
CF 500
Носитель:
WEB
Аудиокодек:
FLAC (*.flac)
Тип рипа:
tracks
Битрейт аудио:
lossless
Время звучания:
00:48:15
Релизёр (источник):
RED [BANDCAMP.com]
Треклист:

01. Outcries Rousing [21:33]
02. A Pause, a Rose [06:08]
03. Shimmer Intend Spark Groove Defend [20:35]

 
DRM.log
foobar2000 1.3.9 / Dynamic Range Meter 1.1.1
log date: 2019-03-12 05:44:04
--------------------------------------------------------------------------------
Analyzed: Larry Ochs, Nels Cline & Gerald Cleaver / What Is to Be Done
--------------------------------------------------------------------------------
DR         Peak         RMS     Duration Track
--------------------------------------------------------------------------------
DR9       -0.10 dB   -12.13 dB     21:33 01-Outcries Rousing
DR14      -0.10 dB   -18.93 dB      6:08 02-A Pause, a Rose
DR10      -0.10 dB   -12.58 dB     20:35 03-Shimmer Intend Spark Groove Defend
--------------------------------------------------------------------------------
Number of tracks:  3
Official DR value: DR11
Samplerate:        44100 Hz
Channels:          2
Bits per sample:   16
Bitrate:           825 kbps
Codec:             FLAC
================================================================================
Лог проверки качества
-----------------------

DON'T MODIFY THIS FILE

-----------------------

PERFORMER: auCDtect Task Manager, ver. 1.6.0 RC1 build 1.6.0.1
Copyright (c) 2008-2010 y-soft. All rights reserved

ANALYZER: auCDtect: CD records authenticity detector, version 0.8.2
Copyright (c) 2004 Oleg Berngardt. All rights reserved.
Copyright (c) 2004 Alexander Djourik. All rights reserved.

FILE: 03. Shimmer Intend Spark Groove Defend.flac
  Size: 127389764 Hash: BF30293DD8F5E9A37FD279D9B71E44BB Accuracy: -m0
  Conclusion: CDDA 100%
  Signature: 038BBB7C26047424B604C1C9AAC050EDBC26FD56
FILE: 02. A Pause, a Rose.flac
  Size: 28665679 Hash: 37BF176B3EC28D75BF0232A20192C88B Accuracy: -m0
  Conclusion: CDDA 85%
  Signature: FBE018D8647734C7847BAA8C57135459250906DE
FILE: 01. Outcries Rousing.flac
  Size: 132965137 Hash: 76A3C2BD63DFC986F0915ACAE22394DB Accuracy: -m0
  Conclusion: CDDA 100%
  Signature: 8A9A6B10DE80A8BEDC2B07D5695CB515D231D5FB
Скриншот спектра частот
2019 Larry Ochs, Nels Cline & Gerald Cleaver - What Is To Be Done {Clean Feed CF 500} [WEB] 0
Приватный:
Нет (DHT включён)
Размер:
275.74 Мб (289,134,206 байт) » файлов: 5
Участники:
0 раздают, 0 качают (0 участников всего)
Внешние участники:
19 раздают, 6 качают (25 участников всего) [ Обновить ]
13:38
13
Нет комментариев. Ваш будет первым!