Поиск

2017 Gerald Beckett - Oblivion {Summit DCD 701} [WEB]

2017 Gerald Beckett - Oblivion {Summit DCD 701} [WEB]
Стили:
Страна-производитель диска (релиза):
USA
Место записи:
Bellboy Studios; Studio Trilogy; The Art Institute of California
Издатель (лейбл):
Номер по каталогу:
DCD 701
Носитель:
WEB
Аудиокодек:
FLAC (*.flac)
Тип рипа:
tracks
Битрейт аудио:
lossless
Время звучания:
01:00:01
Наличие сканов:
web
Треклист:

01.    So What 7:44
02.    Davito 6:16
03.    Swinging At The Haven 5:07
04.    Nem Um Talvez 3:40
05.    Blues #2 7:10
06.    Eva 5:15
07.    Bernie's Tune 5:15
08.    Oblivion 6:15
09.    Out Of This World 11:50

Although Gerry Mulligan helped make "Bernie's Tune" famous through his 1950s recordings of it, the composer is actually Bernie Miller.

The artist Ruben Salcido (2) [alto saxophone] is correct and not to be confused with the ANV of another artist, Rubén Darío Salcedo.

 
DRM.log

foobar2000 1.4.2 / Dynamic Range Meter 1.1.1
log date: 2019-03-12 15:36:18

--------------------------------------------------------------------------------
Analyzed: Gerald Beckett / Oblivion
--------------------------------------------------------------------------------

DR         Peak         RMS     Duration Track
--------------------------------------------------------------------------------
DR10      -0.22 dB   -13.19 dB      7:44 01-So What
DR14      -0.48 dB   -16.27 dB      6:16 02-Davito
DR10      -0.28 dB   -12.15 dB      5:07 03-Swinging at the Haven
DR10      -0.64 dB   -13.98 dB      3:40 04-Nem Um Talvez
DR10       0.00 dB   -12.09 dB      7:10 05-Blues
DR11      -0.45 dB   -13.89 dB      6:48 06-Eva
DR10      -0.36 dB   -13.35 dB      5:15 07-Bernie's Tune
DR10      -2.08 dB   -15.06 dB      6:15 08-Oblivion
DR11       0.00 dB   -12.56 dB     11:50 09-Out of This World
--------------------------------------------------------------------------------

Number of tracks:  9
Official DR value: DR11

Samplerate:        44100 Hz
Channels:          2
Bits per sample:   16
Bitrate:           848 kbps
Codec:             FLAC
================================================================================

Содержание индексной карты (.CUE)
REM DATE 2017
PERFORMER "Gerald Beckett"
TITLE "Oblivion"
FILE "01. So What.flac" WAVE
  TRACK 01 AUDIO
    TITLE "So What"
    PERFORMER "Gerald Beckett"
    INDEX 01 00:00:00
FILE "02. Davito.flac" WAVE
  TRACK 02 AUDIO
    TITLE "Davito"
    PERFORMER "Gerald Beckett"
    INDEX 01 00:00:00
FILE "03. Swinging at the Haven.flac" WAVE
  TRACK 03 AUDIO
    TITLE "Swinging at the Haven"
    PERFORMER "Gerald Beckett"
    INDEX 01 00:00:00
FILE "04. Nem Um Talvez.flac" WAVE
  TRACK 04 AUDIO
    TITLE "Nem Um Talvez"
    PERFORMER "Gerald Beckett"
    INDEX 01 00:00:00
FILE "05. Blues.flac" WAVE
  TRACK 05 AUDIO
    TITLE "Blues"
    PERFORMER "Gerald Beckett"
    INDEX 01 00:00:00
FILE "06. Eva.flac" WAVE
  TRACK 06 AUDIO
    TITLE "Eva"
    PERFORMER "Gerald Beckett"
    INDEX 01 00:00:00
FILE "07. Bernie's Tune.flac" WAVE
  TRACK 07 AUDIO
    TITLE "Bernie's Tune"
    PERFORMER "Gerald Beckett"
    INDEX 01 00:00:00
FILE "08. Oblivion.flac" WAVE
  TRACK 08 AUDIO
    TITLE "Oblivion"
    PERFORMER "Gerald Beckett"
    INDEX 01 00:00:00
FILE "09. Out of This World.flac" WAVE
  TRACK 09 AUDIO
    TITLE "Out of This World"
    PERFORMER "Gerald Beckett"
    INDEX 01 00:00:00
Лог проверки качества
CUE Corrector v. 8.3.5 / b. 906 (Mar. 02, 2019)
————————————————————————————————————————————————————————————————————————
Gerald Beckett / Oblivion

Folder: 2017 Gerald Beckett - Oblivion {Summit DCD 701} [WEB]
Audio files:
    01. So What.flac [07:43.613; FLAC • 746 kbps • 16 bit \ 44100 Hz • stereo; 41.24 MB (43 241 746 B)]
    02. Davito.flac [06:16.253; FLAC • 622 kbps • 16 bit \ 44100 Hz • stereo; 27.93 MB (29 288 787 B)]
    03. Swinging at the Haven.flac [05:07.213; FLAC • 812 kbps • 16 bit \ 44100 Hz • stereo; 29.74 MB (31 182 673 B)]
    04. Nem Um Talvez.flac [03:39.947; FLAC • 748 kbps • 16 bit \ 44100 Hz • stereo; 19.61 MB (20 565 139 B)]
    05. Blues.flac [07:10.213; FLAC • 845 kbps • 16 bit \ 44100 Hz • stereo; 43.37 MB (45 481 187 B)]
    06. Eva.flac [06:47.653; FLAC • 826 kbps • 16 bit \ 44100 Hz • stereo; 40.15 MB (42 101 337 B)]
    07. Bernie's Tune.flac [05:15.067; FLAC • 823 kbps • 16 bit \ 44100 Hz • stereo; 30.93 MB (32 428 639 B)]
    08. Oblivion.flac [06:14.907; FLAC • 710 kbps • 16 bit \ 44100 Hz • stereo; 31.75 MB (33 294 263 B)]
    09. Out of This World.flac [11:50.347; FLAC • 853 kbps • 16 bit \ 44100 Hz • stereo; 72.24 MB (75 750 830 B)]

Accuracy: -m0

File 01. So What               - 100% CDDA [07:43:46]
File 02. Davito                -  99% CDDA [06:16:19]
File 03. Swinging at the Haven - 100% CDDA [05:07:16]
File 04. Nem Um Talvez         - 100% CDDA [03:39:71]
File 05. Blues                 -  99% CDDA [07:10:16]
File 06. Eva                   - 100% CDDA [06:47:49]
File 07. Bernie's Tune         - 100% CDDA [05:15:05]
File 08. Oblivion              - 100% CDDA [06:14:68]
File 09. Out of This World     - 100% CDDA [11:50:26]
————— Summary: —————
These tracks looks like CDDA with probability 100%.
————————————————————————————————————————————————————————————————————————

ANALYZER:
    auCDtect: CD records authenticity detector, version 0.8.2
    Copyright (c) 2004 Oleg Berngardt. All rights reserved.
    Copyright (c) 2004 Alexander Djourik. All rights reserved.

Time elapsed: 3 m 40 s
Log created at March 12, 2019 15:41:43

=== 4D4D63540949831DF67377812E1E456F1E08B462499FC55E53AB994EE106FB73 ===
Скачивание доступно после регистрации!!
Приватный:
Нет (DHT включён)
Размер:
337.59 Мб (353,993,594 байт) » файлов: 16
Участники:
2 раздают, 0 качают (2 участников всего)
Внешние участники:
--- [ Обновить ]
17:02
22
Нет комментариев. Ваш будет первым!