Поиск

(Post-Bop, Contemporary Jazz) [CD] Roxy Coss - Restless Idealism - 2016, FLAC (tracks+.cue), lossless

(Post-Bop, Contemporary Jazz) [CD] Roxy Coss - Restless Idealism - 2016, FLAC (tracks+.cue), lossless
Битрейт аудио:
lossless
Треклист:
Roxy Coss - Restless Idealism
Жанр: Post-Bop, Contemporary Jazz
Носитель: CD
Год издания: 2016
Издатель (лейбл): Origin Records
Номер по каталогу: Origin 82705
Аудиокодек: FLAC (*.flac)
Тип рипа: tracks+.cue
Битрейт аудио: lossless
Продолжительность: 00:59:03
Источник: www
Наличие сканов в содержимом раздачи: нет

Roxy Coss - Tenor and Soprano Saxophones
Jeremy Pelt - Trumpet
Alex Wintz - Guitar
Chris Pattishall - Piano
Dezron Douglas - Bass
Willie Jones III - Drums

01. Don't Cross the Coss (04:12)
02. Waiting (06:33)
03. Push (05:11)
04. Perspective (05:30)
05. Breaking Point (07:55)
06. Happiness Is a Choice (05:17)
07. Tricky (06:40)
08. The Story of Fiona (05:40)
09. Almost My Own (06:43)
10. Recurring Dream (05:16)

 
Лог создания рипа
Exact Audio Copy V1.3 from 2. September 2016
EAC extraction logfile from 10. March 2019, 17:36
Roxy Coss / Restless Idealism
Used drive : MATSHITADVD-RAM UJ8B0 Adapter: 1 ID: 0
Read mode : Secure
Utilize accurate stream : Yes
Defeat audio cache : Yes
Make use of C2 pointers : No
Read offset correction : 102
Overread into Lead-In and Lead-Out : No
Fill up missing offset samples with silence : Yes
Delete leading and trailing silent blocks : No
Null samples used in CRC calculations : Yes
Used interface : Native Win32 interface for Win NT & 2000
Gap handling : Appended to previous track
Used output format : User Defined Encoder
Selected bitrate : 1024 kBit/s
Quality : High
Add ID3 tag : No
Command line compressor : C:\Program Files (x86)\Exact Audio Copy\Flac\flac.exe
Additional command line options : -8 -V -T "ARTIST=%artist%" -T "TITLE=%title%" -T "ALBUM=%albumtitle%" -T "DATE=%year%" -T "TRACKNUMBER=%tracknr%" -T "GENRE=%genre%" -T "PERFORMER=%albuminterpret%" -T "COMPOSER=%composer%" %haslyrics%--tag-from-file=LYRICS="%lyricsfile%"%haslyrics% -T "ALBUMARTIST=%albumartist%" -T "DISCNUMBER=%cdnumber%" -T "TOTALDISCS=%totalcds%" -T "TOTALTRACKS=%numtracks%" -T "COMMENT=%comment%" %source% -o %dest%
TOC of the extracted CD
Track | Start | Length | Start sector | End sector
---------------------------------------------------------
1 | 0:00.00 | 4:12.65 | 0 | 18964
2 | 4:12.65 | 6:33.55 | 18965 | 48494
3 | 10:46.45 | 5:11.17 | 48495 | 71836
4 | 15:57.62 | 5:30.65 | 71837 | 96651
5 | 21:28.52 | 7:55.25 | 96652 | 132301
6 | 29:24.02 | 5:17.38 | 132302 | 156114
7 | 34:41.40 | 6:40.60 | 156115 | 186174
8 | 41:22.25 | 5:40.63 | 186175 | 211737
9 | 47:03.13 | 6:43.30 | 211738 | 241992
10 | 53:46.43 | 5:16.46 | 241993 | 265738
Track 1
Filename C:\Users\Public\Music\Roxy Coss - Restless Idealism (2016) {Origin 82705} [CDFLAC]\01 - Don't Cross the Coss.wav
Pre-gap length 0:00:02.00
Peak level 98.8 %
Extraction speed 1.1 X
Track quality 100.0 %
Test CRC 991AD710
Copy CRC 991AD710
Accurately ripped (confidence 4) [4CD95213] (AR v2)
Copy OK
Track 2
Filename C:\Users\Public\Music\Roxy Coss - Restless Idealism (2016) {Origin 82705} [CDFLAC]\02 - Waiting.wav
Pre-gap length 0:00:00.92
Peak level 98.8 %
Extraction speed 1.3 X
Track quality 99.9 %
Test CRC 65816CA8
Copy CRC 65816CA8
Accurately ripped (confidence 4) [F123706F] (AR v2)
Copy OK
Track 3
Filename C:\Users\Public\Music\Roxy Coss - Restless Idealism (2016) {Origin 82705} [CDFLAC]\03 - Push.wav
Pre-gap length 0:00:01.21
Peak level 98.8 %
Extraction speed 1.5 X
Track quality 100.0 %
Test CRC AB048D24
Copy CRC AB048D24
Accurately ripped (confidence 4) [1D5F837B] (AR v2)
Copy OK
Track 4
Filename C:\Users\Public\Music\Roxy Coss - Restless Idealism (2016) {Origin 82705} [CDFLAC]\04 - Perspective.wav
Pre-gap length 0:00:00.74
Peak level 98.2 %
Extraction speed 1.7 X
Track quality 100.0 %
Test CRC 5268AAC2
Copy CRC 5268AAC2
Accurately ripped (confidence 4) [942E7B9B] (AR v2)
Copy OK
Track 5
Filename C:\Users\Public\Music\Roxy Coss - Restless Idealism (2016) {Origin 82705} [CDFLAC]\05 - Breaking Point.wav
Pre-gap length 0:00:01.65
Peak level 98.8 %
Extraction speed 1.9 X
Track quality 100.0 %
Test CRC 65E7932B
Copy CRC 65E7932B
Accurately ripped (confidence 4) [484CC66B] (AR v2)
Copy OK
Track 6
Filename C:\Users\Public\Music\Roxy Coss - Restless Idealism (2016) {Origin 82705} [CDFLAC]\06 - Happiness Is a Choice.wav
Pre-gap length 0:00:01.98
Peak level 98.5 %
Extraction speed 2.0 X
Track quality 100.0 %
Test CRC 517142E7
Copy CRC 517142E7
Accurately ripped (confidence 4) [EF8C56EA] (AR v2)
Copy OK
Track 7
Filename C:\Users\Public\Music\Roxy Coss - Restless Idealism (2016) {Origin 82705} [CDFLAC]\07 - Tricky.wav
Pre-gap length 0:00:01.81
Peak level 98.8 %
Extraction speed 2.1 X
Track quality 100.0 %
Test CRC AA86C898
Copy CRC AA86C898
Accurately ripped (confidence 4) [70782A81] (AR v2)
Copy OK
Track 8
Filename C:\Users\Public\Music\Roxy Coss - Restless Idealism (2016) {Origin 82705} [CDFLAC]\08 - The Story of Fiona.wav
Pre-gap length 0:00:01.24
Peak level 98.8 %
Extraction speed 2.2 X
Track quality 100.0 %
Test CRC 9B006398
Copy CRC 9B006398
Accurately ripped (confidence 4) [51C22476] (AR v2)
Copy OK
Track 9
Filename C:\Users\Public\Music\Roxy Coss - Restless Idealism (2016) {Origin 82705} [CDFLAC]\09 - Almost My Own.wav
Pre-gap length 0:00:01.52
Peak level 98.8 %
Extraction speed 2.2 X
Track quality 99.9 %
Test CRC 21BDF91E
Copy CRC 21BDF91E
Accurately ripped (confidence 4) [2A46640D] (AR v2)
Copy OK
Track 10
Filename C:\Users\Public\Music\Roxy Coss - Restless Idealism (2016) {Origin 82705} [CDFLAC]\10 - Recurring Dream.wav
Pre-gap length 0:00:01.45
Peak level 98.7 %
Extraction speed 2.4 X
Track quality 100.0 %
Test CRC D40BF72B
Copy CRC D40BF72B
Accurately ripped (confidence 4) [CB48B9F2] (AR v2)
Copy OK
All tracks accurately ripped
No errors occurred
End of status report
---- CUETools DB Plugin V2.1.6
[CTDB TOCID: oe.Zo7ydowh_N.HIMWvUcwYAcy4-] found
Submit result: oe.Zo7ydowh_N.HIMWvUcwYAcy4- has been confirmed
Track | CTDB Status
1 | (12/12) Accurately ripped
2 | (12/12) Accurately ripped
3 | (12/12) Accurately ripped
4 | (12/12) Accurately ripped
5 | (12/12) Accurately ripped
6 | (12/12) Accurately ripped
7 | (12/12) Accurately ripped
8 | (12/12) Accurately ripped
9 | (12/12) Accurately ripped
10 | (12/12) Accurately ripped
==== Log checksum 7A7B64D7FBE7B73BF6A697A60896B378F61BE71F4AB15B7A02C1A34C9B95A876 ====
 
Содержание индексной карты (.CUE)
REM GENRE Jazz
REM DATE 2016
REM DISCID 950DD70A
REM COMMENT "ExactAudioCopy v1.3"
PERFORMER "Roxy Coss"
TITLE "Restless Idealism"
REM COMPOSER ""
FILE "01 - Don't Cross the Coss.wav" WAVE
TRACK 01 AUDIO
TITLE "Don't Cross the Coss"
PERFORMER "Roxy Coss"
REM COMPOSER ""
INDEX 01 00:00:00
TRACK 02 AUDIO
TITLE "Waiting"
PERFORMER "Roxy Coss"
REM COMPOSER ""
INDEX 00 04:11:71
FILE "02 - Waiting.wav" WAVE
INDEX 01 00:00:00
TRACK 03 AUDIO
TITLE "Push"
PERFORMER "Roxy Coss"
REM COMPOSER ""
INDEX 00 06:32:39
FILE "03 - Push.wav" WAVE
INDEX 01 00:00:00
TRACK 04 AUDIO
TITLE "Perspective"
PERFORMER "Roxy Coss"
REM COMPOSER ""
INDEX 00 05:10:36
FILE "04 - Perspective.wav" WAVE
INDEX 01 00:00:00
TRACK 05 AUDIO
TITLE "Breaking Point"
PERFORMER "Roxy Coss"
REM COMPOSER ""
INDEX 00 05:29:16
FILE "05 - Breaking Point.wav" WAVE
INDEX 01 00:00:00
TRACK 06 AUDIO
TITLE "Happiness Is a Choice"
PERFORMER "Roxy Coss"
REM COMPOSER ""
INDEX 00 07:53:26
FILE "06 - Happiness Is a Choice.wav" WAVE
INDEX 01 00:00:00
TRACK 07 AUDIO
TITLE "Tricky"
PERFORMER "Roxy Coss"
REM COMPOSER ""
INDEX 00 05:15:52
FILE "07 - Tricky.wav" WAVE
INDEX 01 00:00:00
TRACK 08 AUDIO
TITLE "The Story of Fiona"
PERFORMER "Roxy Coss"
REM COMPOSER ""
INDEX 00 06:39:42
FILE "08 - The Story of Fiona.wav" WAVE
INDEX 01 00:00:00
TRACK 09 AUDIO
TITLE "Almost My Own"
PERFORMER "Roxy Coss"
REM COMPOSER ""
INDEX 00 05:39:24
FILE "09 - Almost My Own.wav" WAVE
INDEX 01 00:00:00
TRACK 10 AUDIO
TITLE "Recurring Dream"
PERFORMER "Roxy Coss"
REM COMPOSER ""
INDEX 00 06:41:71
FILE "10 - Recurring Dream.wav" WAVE
INDEX 01 00:00:00
Приватный:
Нет (DHT включён)
Размер:
391.62 Мб (410,648,502 байт) » файлов: 15
Участники:
0 раздают, 0 качают (0 участников всего)
Внешние участники:
--- [ Обновить ]
12:50
14
Нет комментариев. Ваш будет первым!