Вы используете незарегистрированную версию компонента "Вкладки"!

Поиск

(Post-Bop / Avant-Garde Jazz) Steve Lacy - The Straight Horn Of Steve Lacy - 1961, FLAC (tracks+.cue), lossless

Треклист:
Steve Lacy - The Straight Horn Of Steve Lacy
Жанр: Post-Bop / Avant-Garde Jazz
Год выпуска диска: 1961
Производитель диска: США
Аудио кодек: FLAC
Тип рипа: tracks+.cue
Битрейт аудио: lossless
Продолжительность: 37:16
Трэклист:
01. Louise 05:27
02. Introspection 05:34
03. Donna Lee 07:55
04. Played Twice 05:54
05. Air 06:40
06. Criss Cross 05:46
Музыканты:
Steve Lacy - soprano saxophone
Charles Davis - baritone saxophone
John Ore - bass
Roy Haynes - drums
 
Рецензия на альбом The Straight Horn Of Steve Lacy от allmusic.com (на английском)
Some of soprano saxophonist Steve Lacy's most interesting recordings are his earliest ones. After spending periods of time playing with Dixieland groups and then with Cecil Taylor (which was quite a jump), Lacy made several recordings that displayed his love of Thelonious Monk's music plus his varied experiences. On this particular set, Lacy's soprano contrasts well with Charles Davis' baritone (they are backed by bassist John Ore and drummer Roy Haynes) on three of the most difficult Monk tunes ("Introspection," "Played Twice," and "Criss Cross") plus two Cecil Taylor compositions and Charlie Parker's "Donna Lee."
Scott Yanow
 
Рецензия на альбом The Straight Horn Of Steve Lacy от allmusic.com (перевод)
Среди самых интересных записей сопрано саксофониста Steve Lacy's - его ранние альбомы. После того, как он поиграл диксиленд, а позже играл вместе с Cecil Taylor (еще тот прыжок), Lacy сделал несколько записей, на которых продемонстрировал свою любовь к музыке Thelonious Monk'а вместе со своим разнообразным опытом. На этой записи сопрано Lacy прекрасно контрастирует с баритоном Charles Davis'а (их поддерживают басист John Ore и барабанщик Roy Haynes) на трех из самых сложных мелодий Monk'а ("Introspection," "Played Twice" и "Criss Cross"), двух композициях Cecil Taylor'а и "Donna Lee" Charlie Parker'а.
Скотт Яноу
 
EAC log
EAC extraction logfile from 14. March 2007, 12:44 for CD
Steve Lacy / The Straight Horn of Steve Lacy
Used drive : PIONEER DVD-RW DVR-K16RS Adapter: 0 ID: 0
Read mode : Secure with NO C2, accurate stream, disable cache
Read offset correction : 48
Overread into Lead-In and Lead-Out : Yes
Used output format : Internal WAV Routines
44.100 Hz; 16 Bit; Stereo
Other options :
Fill up missing offset samples with silence : Yes
Delete leading and trailing silent blocks : No
Native Win32 interface for Win NT & 2000
Track 1
Filename C:\tmp\Out\Steve Lacy - The Straight Horn of Steve Lacy - 01 - Louise.wav
Pre-gap length 0:00:02.00
Peak level 77.7 %
Track quality 100.0 %
Test CRC 3B5777C1
Copy CRC 3B5777C1
Copy OK
Track 2
Filename C:\tmp\Out\Steve Lacy - The Straight Horn of Steve Lacy - 02 - Introspection.wav
Pre-gap length 0:00:04.33
Peak level 82.9 %
Track quality 100.0 %
Test CRC DA39724B
Copy CRC DA39724B
Copy OK
Track 3
Filename C:\tmp\Out\Steve Lacy - The Straight Horn of Steve Lacy - 03 - Donna Lee.wav
Pre-gap length 0:00:02.35
Peak level 100.0 %
Track quality 100.0 %
Test CRC 903F828B
Copy CRC 903F828B
Copy OK
Track 4
Filename C:\tmp\Out\Steve Lacy - The Straight Horn of Steve Lacy - 04 - Played Twice.wav
Pre-gap length 0:00:02.00
Peak level 73.6 %
Track quality 100.0 %
Test CRC 196C9FFD
Copy CRC 196C9FFD
Copy OK
Track 5
Filename C:\tmp\Out\Steve Lacy - The Straight Horn of Steve Lacy - 05 - Air.wav
Pre-gap length 0:00:02.00
Peak level 94.9 %
Track quality 100.0 %
Test CRC CA07DD1C
Copy CRC CA07DD1C
Copy OK
Track 6
Filename C:\tmp\Out\Steve Lacy - The Straight Horn of Steve Lacy - 06 - Criss Cross.wav
Pre-gap length 0:00:02.45
Peak level 96.7 %
Track quality 100.0 %
Test CRC A5996EF2
Copy CRC A5996EF2
Copy OK
No errors occured
End of status report
 
можно обратить внимание также на другие lossless релизы свободного и авангардного джаза от laocha на rutracker.org
(Avant-Garde Jazz) Ben Monder Trio - Oceana - 2005, FLAC (image+.cue), lossless
(Avant-Garde Jazz) Ben Monder - Excavation - 2000, FLAC (image+.cue), lossless
(Avant-Garde Jazz) Ben Monder Trio - Flux - 1995, FLAC (image+.cue), lossless
(Avant-Garde Jazz) Cecil Taylor Unit - The Eighth - 1981, FLAC (tracks+.cue), lossless
(Avant-Garde Jazz) Cecil Taylor - Algonquin - 2004, APE (tracks), losless
(Avant-Garde Jazz) Henry Threadgill Very Very Circus - Carry The Day - 1995, FLAC (tracks), lossless
(Avant-Garde Jazz) Henry Threadgill Sextett - Rag, Bush and All - 1989, FLAC (image+.cue), lossless
(Avant-Garde Jazz) Pandelis Karayorgis, Mat Maneri - Disambiguation - 2002, FLAC (tracks+.cue), lossless
(Avant-Garde Jazz) Vinny Golia, Joelle Leandre & Ken Filiano - Haunting the Spirits Inside Them - 1995, APE (image+.cue), lossless
(Avant-Garde / Free Improvisation) Alexander Nesterov, Yuriy Yaremchuk / Александр Нестеров, Юрий Яремчук - Prepared Piano and Soprano Saxophone - 1994, FLAC (tracks+.cue), lossless
(Avant-Garde Jazz / Free Improvisation) Yuriy Yaremchuk, Sergej Zelenskiy / Юрий Яремчук, Сергей Зеленский - Figures - 2002, FLAC (tracks+.cue), lossless
(Avant-Garde Jazz / Free Improvisation) Yuriy Yaremchuk, Mark Tokar / Юрий Яремчук, Марк Токар - Eight Compositions - 2005, FLAC (tracks+.cue), lossless
(Avant-Garde Jazz / Free Improvisation) Yuriy Yaremchuk / Юрий Яремчук - Seven Compositions - 2006, FLAC (tracks+.cue), lossless
(Avant-Garde Jazz / Free Improvisation) Yuriy Yaremchuk / Юрий Яремчук - Six Compositions for Tenor Sax and Synthesizer Yamaha - 2008, FLAC (tracks+.cue), lossless
По всем вопросам пишите личное сообщение пользователю M0p94ok.
17:07
240
Нет комментариев. Ваш будет первым!