Вы используете незарегистрированную версию компонента "Вкладки"!

Поиск

(Contemporary Jazz, Experimental) Third Person ( Tom Cora and Samm Bennett) - The Bends - 1991, FLAC (image+.cue), lossless

Треклист:
Third Person ( Tom Cora and Samm Bennett) - The Bends
Жанр: Contemporary Jazz, Experimental
Год выпуска диска: 1991
Производитель диска: Knitting Factory Works, USA
Аудио кодек: FLAC
Тип рипа: image+.cue
Битрейт аудио: lossless
Продолжительность: 73:11
Трэклист:
1 La Mystere De La Chambre Jaune 3:26 Voice - Catherine Jauniaux
2 Everybody Chews 5:56 Guitar - Marc Ribot
3 People Want Happy Some 4:05 Clarinet - Don Byron
4 A Country Wedding 2:54 Electronics - Nic Collins
5 First Thirds 5:17 Saxophone - George Cartwright
6 Greazy Bag 2:35 Guitar - Marc Ribot
7 Procedure Against Rain 3:24 Harp - Zeena Parkins
8 Utah 4:02 Saxophone - George Cartwright
9 The Deciding Machine 2:26 Clarinet - Don Byron
10 Snake Oil 4:14 Saxophone - George Cartwright
11 Mama Chauffage 5:04 Clarinet - Don Byron
12 Optic Nerve 5:13 Piano - Myra Melford
13 If We Were Talking About 4:54 Electronics - Nic Collins
14 Never Home 3:20 Guitar - Chris Cochrane
15 Bibandum 2:17 Voice - Catherine Jauniaux
16 Weaklings 3:51 Guitar - Marc Ribot
17 When A Hat Gets Lonesome 4:59 Electronics - Nic Collins
18 Tackle 3:36 Guitar - Marc Ribot
19 Girl Tying Her Shoe 0:57 Harp - Zeena Parkins
 
Отчет ЕАC
Exact Audio Copy V0.99 prebeta 5 from 4. May 2009
EAC extraction logfile from 8. December 2009, 10:48
Third Person / The Bends
Used drive : HL-DT-STDVD-RAM GSA-H55N Adapter: 1 ID: 0
Read mode : Secure
Utilize accurate stream : Yes
Defeat audio cache : Yes
Make use of C2 pointers : No
Read offset correction : 102
Overread into Lead-In and Lead-Out : No
Fill up missing offset samples with silence : Yes
Delete leading and trailing silent blocks : No
Null samples used in CRC calculations : Yes
Used interface : Installed external ASPI interface
Used output format : User Defined Encoder
Selected bitrate : 768 kBit/s
Quality : High
Add ID3 tag : No
Command line compressor : C:\Program Files\Exact Audio Copy\Flac\flac.exe
Additional command line options : -8 -V -T "ARTIST=%a" -T "TITLE=%t" -T "ALBUM=%g" -T "DATE=%y" -T "TRACKNUMBER=%n" -T "GENRE=%m" -T "COMMENT=EAC FLAC -8" %s
TOC of the extracted CD
Track | Start | Length | Start sector | End sector
---------------------------------------------------------
1 | 0:00.00 | 3:30.43 | 0 | 15792
2 | 3:30.43 | 6:06.27 | 15793 | 43269
3 | 9:36.70 | 4:07.10 | 43270 | 61804
4 | 13:44.05 | 2:55.33 | 61805 | 74962
5 | 16:39.38 | 5:18.22 | 74963 | 98834
6 | 21:57.60 | 2:35.00 | 98835 | 110459
7 | 24:32.60 | 3:24.28 | 110460 | 125787
8 | 27:57.13 | 4:03.27 | 125788 | 144039
9 | 32:00.40 | 2:28.25 | 144040 | 155164
10 | 34:28.65 | 4:17.03 | 155165 | 174442
11 | 38:45.68 | 5:08.10 | 174443 | 197552
12 | 43:54.03 | 5:16.07 | 197553 | 221259
13 | 49:10.10 | 4:55.70 | 221260 | 243454
14 | 54:06.05 | 3:20.08 | 243455 | 258462
15 | 57:26.13 | 2:18.37 | 258463 | 268849
16 | 59:44.50 | 3:53.00 | 268850 | 286324
17 | 63:37.50 | 5:00.08 | 286325 | 308832
18 | 68:37.58 | 3:36.70 | 308833 | 325102
19 | 72:14.53 | 0:57.10 | 325103 | 329387
Range status and errors
Selected range
Filename E:\Nukrauti\FLAC\Third Person\Third Person - The Bends.wav
Peak level 100.0 %
Range quality 99.9 %
Test CRC 95A8007E
Copy CRC 95A8007E
Copy OK
No errors occurred
AccurateRip summary
Track 1 accurately ripped (confidence 1) [DDD81A83]
Track 2 accurately ripped (confidence 1) [EDD72227]
Track 3 accurately ripped (confidence 1) [48BE4F4F]
Track 4 accurately ripped (confidence 1) [0037E6B8]
Track 5 accurately ripped (confidence 1) [7F2CA0AE]
Track 6 accurately ripped (confidence 1) [3F61E546]
Track 7 accurately ripped (confidence 1) [B9EE9444]
Track 8 accurately ripped (confidence 1) [B9DE7939]
Track 9 accurately ripped (confidence 1) [14B47E54]
Track 10 accurately ripped (confidence 1) [4015C43F]
Track 11 accurately ripped (confidence 1) [B9EFE2B2]
Track 12 accurately ripped (confidence 1) [073CD050]
Track 13 accurately ripped (confidence 1) [D4EF3BA8]
Track 14 accurately ripped (confidence 1) [1833A11E]
Track 15 accurately ripped (confidence 1) [B839B04C]
Track 16 accurately ripped (confidence 1) [3A947575]
Track 17 accurately ripped (confidence 1) [FC27EAF8]
Track 18 cannot be verified as accurate (confidence 1) [F494B0DD], AccurateRip returned [AF51DDD1]
Track 19 accurately ripped (confidence 1) [BB0704B5]
18 track(s) accurately ripped
1 track(s) could not be verified as accurate
Some tracks could not be verified as accurate
End of status report
По всем вопросам пишите личное сообщение пользователю M0p94ok.
17:07
159
Нет комментариев. Ваш будет первым!