Поиск

(Free Improvisation, Avant-Garde) 100nka & Herb Robertson - Superdesert - 2009, FLAC (tracks+.cue), lossless

(Free Improvisation, Avant-Garde) 100nka & Herb Robertson - Superdesert - 2009, FLAC (tracks+.cue), lossless
Треклист:
100nka & Herb Robertson - Superdesert
Жанр: Free Improvisation, Avant-Garde
Год выпуска диска: 2009
Производитель диска: Not Two Records
Аудио кодек: FLAC
Тип рипа: tracks+.cue
Битрейт аудио: lossless
Продолжительность: 44:52
Трэклист:
Elephant Shit;
Horse Shit;
Cat Shit;
Donkey Shit;
Snake Shit;
Moose Shit;
Rabbit Shit;
Parrot Shit;
Dog Shit;
Cow Shit;
Hamster Shit;
Camel Shit;
Bull Shit.
Herb Robertson: trumpet, mutes, megaphone, voice;
Tomek Leś: guitar;
Adam Stodolski: double bass;
Przemek Borowiecki: drums, bells, paper.
Доп. информация:
 
By Jerry D'Souza
How much shit can one take? Well that depends. If it is being served by the quirky Polish trio 100nka—featuring guitarist Tomek Leś, bassist Adam Stodolski and percussionist Przemek Borowiecki—there may not be quite enough. Their music is rather undefinable, jumping and sneaking as it does into odd nooks and crannies. Much of it comes from being inquisitive; some of it has to do with the men who influenced them, including John Coltrane, Ornette Coleman, Miles Davis, Drew Gress, Ellery Eskelin, William Parker and DJ Logic.
100nka has the perfect cohort in trumpeter Herb Robertson, who melds seamlessly into their manipulations. It is a different kettle of fish for him; long an inspired presence on the avant-garde map, with his marvelously tangential trumpet playing, Robertson tucks himself largely into the overall ambit of the trio.
The CD was recorded live, and gets off with the improvised "Elephant Shit." Sawed bass, tortured trumpet notes, lines scraped across the guitar, and vocals that scuttle to bring in an air of theater, waft across the imagination. The group moves from one track to the other, bridging them with logical cohesion. New sound patterns emerge and link with what has gone before.
"Donkey Shit" changes the mood. Robertson leaps into a fiery outburst, shards of tempest flying from his trumpet. Stodolski zaps a hard bop rhythm as Borowiecki lets the beat roll on the toms to transform the atmosphere.
"Moose Shit" is one of the strongest and most complete tracks, with all four making a distinct impression. The initial spell is cast by drums and guitar, conversing while changing shape and texture. The pith gets more pronounced when Robertson comes in and gradually targets the stratosphere. Volatility churns, and as the rhythm section rumbles in anticipation, LeÅ›ś gets into jazz-rock mode; an articulate messenger of the form, with a host of potent phrases and a blitz of feedback.
A whole load of shit is more than a Superdesert. It is a hearty meal. The real dessert is the exceptional cover art.
Track listing: Elephant Shit; Horse Shit; Cat Shit; Donkey Shit; Snake Shit; Moose Shit; Rabbit Shit; Parrot Shit; Dog Shit; Cow Shit; Hamster Shit; Camel Shit; Bull Shit.
 
EAC extraction logfile
Exact Audio Copy V0.99 prebeta 4 from 23. January 2008
EAC extraction logfile from 25. October 2009, 14:39
100nka & Herb Robertson / Superdesert
Used drive : HL-DT-STBDDVDRW GGC-H20L Adapter: 1 ID: 0
Read mode : Secure
Utilize accurate stream : Yes
Defeat audio cache : Yes
Make use of C2 pointers : No
Read offset correction : 667
Overread into Lead-In and Lead-Out : No
Fill up missing offset samples with silence : Yes
Delete leading and trailing silent blocks : No
Null samples used in CRC calculations : Yes
Used interface : Native Win32 interface for Win NT & 2000
Gap handling : Appended to previous track
Used output format : User Defined Encoder
Selected bitrate : 768 kBit/s
Quality : High
Add ID3 tag : No
Command line compressor : D:\Audio\FLAC\flac.exe
Additional command line options : -6 -V -T "ARTIST=%a" -T "TITLE=%t" -T "ALBUM=%g" -T "DATE=%y" -T "TRACKNUMBER=%n" -T "GENRE=%m" -T "COMMENT=%e" %s -o %d
TOC of the extracted CD
Track | Start | Length | Start sector | End sector
---------------------------------------------------------
1 | 0:00.00 | 1:08.19 | 0 | 5118
2 | 1:08.19 | 2:53.28 | 5119 | 18121
3 | 4:01.47 | 3:51.45 | 18122 | 35491
4 | 7:53.17 | 1:07.74 | 35492 | 40590
5 | 9:01.16 | 2:27.34 | 40591 | 51649
6 | 11:28.50 | 4:54.55 | 51650 | 73754
7 | 16:23.30 | 7:55.09 | 73755 | 109388
8 | 24:18.39 | 2:03.34 | 109389 | 118647
9 | 26:21.73 | 5:20.36 | 118648 | 142683
10 | 31:42.34 | 4:32.38 | 142684 | 163121
11 | 36:14.72 | 3:23.10 | 163122 | 178356
12 | 39:38.07 | 1:52.15 | 178357 | 186771
13 | 41:30.22 | 3:22.14 | 186772 | 201935
Track 1
Filename E:\New Rip\100nka & Herb Robertson - Superdesert\01 - Elephant Shit.wav
Pre-gap length 0:00:02.00
Peak level 98.8 %
Track quality 100.0 %
Test CRC B915228C
Copy CRC B915228C
Track not present in AccurateRip database
Copy OK
Track 2
Filename E:\New Rip\100nka & Herb Robertson - Superdesert\02 - Horse Shit.wav
Peak level 98.8 %
Track quality 100.0 %
Test CRC E8F6F903
Copy CRC E8F6F903
Track not present in AccurateRip database
Copy OK
Track 3
Filename E:\New Rip\100nka & Herb Robertson - Superdesert\03 - Cat Shit.wav
Peak level 98.8 %
Track quality 100.0 %
Test CRC 01014961
Copy CRC 01014961
Track not present in AccurateRip database
Copy OK
Track 4
Filename E:\New Rip\100nka & Herb Robertson - Superdesert\04 - Donkey Shit.wav
Peak level 98.8 %
Track quality 100.0 %
Test CRC B2AE28B8
Copy CRC B2AE28B8
Track not present in AccurateRip database
Copy OK
Track 5
Filename E:\New Rip\100nka & Herb Robertson - Superdesert\05 - Snake Shit.wav
Peak level 98.8 %
Track quality 100.0 %
Test CRC DC1B6C5D
Copy CRC DC1B6C5D
Track not present in AccurateRip database
Copy OK
Track 6
Filename E:\New Rip\100nka & Herb Robertson - Superdesert\06 - Moose Shit.wav
Peak level 98.8 %
Track quality 100.0 %
Test CRC 9E1B5AB2
Copy CRC 9E1B5AB2
Track not present in AccurateRip database
Copy OK
Track 7
Filename E:\New Rip\100nka & Herb Robertson - Superdesert\07 - Rabbit Shit.wav
Peak level 96.0 %
Track quality 100.0 %
Test CRC E75CA327
Copy CRC E75CA327
Track not present in AccurateRip database
Copy OK
Track 8
Filename E:\New Rip\100nka & Herb Robertson - Superdesert\08 - Parrot Shit.wav
Peak level 98.8 %
Track quality 100.0 %
Test CRC D4361B05
Copy CRC D4361B05
Track not present in AccurateRip database
Copy OK
Track 9
Filename E:\New Rip\100nka & Herb Robertson - Superdesert\09 - Dog Shit.wav
Peak level 98.8 %
Track quality 100.0 %
Test CRC 0E17C64A
Copy CRC 0E17C64A
Track not present in AccurateRip database
Copy OK
Track 10
Filename E:\New Rip\100nka & Herb Robertson - Superdesert\10 - Cow Shit.wav
Peak level 98.8 %
Track quality 100.0 %
Test CRC DE90E14A
Copy CRC DE90E14A
Track not present in AccurateRip database
Copy OK
Track 11
Filename E:\New Rip\100nka & Herb Robertson - Superdesert\11 - Hamster Shit.wav
Peak level 98.8 %
Track quality 100.0 %
Test CRC 773EE90D
Copy CRC 773EE90D
Track not present in AccurateRip database
Copy OK
Track 12
Filename E:\New Rip\100nka & Herb Robertson - Superdesert\12 - Camel Shit.wav
Peak level 98.8 %
Track quality 99.9 %
Test CRC 49BF7F07
Copy CRC 49BF7F07
Track not present in AccurateRip database
Copy OK
Track 13
Filename E:\New Rip\100nka & Herb Robertson - Superdesert\13 - Bull Shit.wav
Peak level 98.8 %
Track quality 100.0 %
Test CRC 2AB43755
Copy CRC 2AB43755
Track not present in AccurateRip database
Copy OK
None of the tracks are present in the AccurateRip database
No errors occurred
End of status report
По всем вопросам пишите личное сообщение пользователю M0p94ok.
17:08
156
Нет комментариев. Ваш будет первым!