Вы используете незарегистрированную версию компонента "Вкладки"!

Поиск

(Avant -Garde, Experimental) Jon Rose - Violin Music For Restaurants - 1987, FLAC (image+.cue), lossless

Треклист:
Jon Rose - Violin Music For Restaurants
Жанр: Avant -Garde, Experimental
Год выпуска диска: 1987
Производитель диска: ReR, USA
Аудио кодек: FLAC
Тип рипа: image+.cue
Битрейт аудио: lossless
Продолжительность: 66:49
Трэклист:
1 Table 1
2 Table 2
3 Table 3
4 Table 4
5 Table 5
6 Table 6
7 Table 7
8 Table 8
9 Table 9
10 Table 10
11 Table 11
12 Children's Table
13 Table 13
14 Table 14
15 The Last Table
16 ***
17 Costa
18 Peanut
19 Do You Know
20 Mor
21 Paradise
22 Space Violins Flying Lessons
 
Отчет ЕАC
Exact Audio Copy V0.99 prebeta 5 from 4. May 2009
EAC extraction logfile from 8. December 2009, 21:19
Jon Rose / Violin Music For Restaurants
Used drive : HL-DT-STDVD-RAM GSA-H55N Adapter: 1 ID: 0
Read mode : Secure
Utilize accurate stream : Yes
Defeat audio cache : Yes
Make use of C2 pointers : No
Read offset correction : 102
Overread into Lead-In and Lead-Out : No
Fill up missing offset samples with silence : Yes
Delete leading and trailing silent blocks : No
Null samples used in CRC calculations : Yes
Used interface : Installed external ASPI interface
Used output format : User Defined Encoder
Selected bitrate : 768 kBit/s
Quality : High
Add ID3 tag : No
Command line compressor : C:\Program Files\Exact Audio Copy\Flac\flac.exe
Additional command line options : -8 -V -T "ARTIST=%a" -T "TITLE=%t" -T "ALBUM=%g" -T "DATE=%y" -T "TRACKNUMBER=%n" -T "GENRE=%m" -T "COMMENT=EAC FLAC -8" %s
TOC of the extracted CD
Track | Start | Length | Start sector | End sector
---------------------------------------------------------
1 | 0:00.00 | 4:14.13 | 0 | 19062
2 | 4:14.13 | 2:21.45 | 19063 | 29682
3 | 6:35.58 | 4:02.55 | 29683 | 47887
4 | 10:38.38 | 3:08.62 | 47888 | 62049
5 | 13:47.25 | 3:30.13 | 62050 | 77812
6 | 17:17.38 | 3:20.50 | 77813 | 92862
7 | 20:38.13 | 2:46.50 | 92863 | 105362
8 | 23:24.63 | 4:37.15 | 105363 | 126152
9 | 28:02.03 | 3:49.60 | 126153 | 143387
10 | 31:51.63 | 2:01.50 | 143388 | 152512
11 | 33:53.38 | 1:02.00 | 152513 | 157162
12 | 34:55.38 | 2:36.62 | 157163 | 168924
13 | 37:32.25 | 3:33.68 | 168925 | 184967
14 | 41:06.18 | 1:30.70 | 184968 | 191787
15 | 42:37.13 | 3:04.50 | 191788 | 205637
16 | 45:41.63 | 1:36.37 | 205638 | 212874
17 | 47:18.25 | 2:16.25 | 212875 | 223099
18 | 49:34.50 | 2:17.13 | 223100 | 233387
19 | 51:51.63 | 2:13.00 | 233388 | 243362
20 | 54:04.63 | 3:43.00 | 243363 | 260087
21 | 57:47.63 | 9:01.47 | 260088 | 300709
Range status and errors
Selected range
Filename E:\Nukrauti\FLAC\Jon Rose\Jon Rose - Violin Music For Restaurants.wav
Peak level 100.0 %
Range quality 100.0 %
Test CRC 92E4B6D8
Copy CRC 92E4B6D8
Copy OK
No errors occurred
AccurateRip summary
Track 1 accurately ripped (confidence 1) [641E9975]
Track 2 accurately ripped (confidence 1) [E5CB545D]
Track 3 accurately ripped (confidence 1) [FD08BDF6]
Track 4 accurately ripped (confidence 1) [CC79ECB0]
Track 5 accurately ripped (confidence 1) [4C5345CF]
Track 6 accurately ripped (confidence 1) [8BA68F4E]
Track 7 accurately ripped (confidence 1) [737F3F74]
Track 8 accurately ripped (confidence 1) [C0611D22]
Track 9 accurately ripped (confidence 1) [B635668E]
Track 10 accurately ripped (confidence 1) [97954C24]
Track 11 accurately ripped (confidence 1) [DEC6DA06]
Track 12 accurately ripped (confidence 1) [246037AB]
Track 13 accurately ripped (confidence 1) [9D5DA002]
Track 14 accurately ripped (confidence 1) [6EBFB38A]
Track 15 accurately ripped (confidence 1) [A5CE24C5]
Track 16 accurately ripped (confidence 1) [63A0103A]
Track 17 accurately ripped (confidence 1) [9099DC3D]
Track 18 accurately ripped (confidence 1) [EEB92BDD]
Track 19 accurately ripped (confidence 1) [1E9884E4]
Track 20 accurately ripped (confidence 1) [CB76B4D7]
Track 21 accurately ripped (confidence 1) [365B0128]
All tracks accurately ripped
End of status report
По всем вопросам пишите личное сообщение пользователю M0p94ok.
17:09
140
Нет комментариев. Ваш будет первым!