Вы используете незарегистрированную версию компонента "Вкладки"!

Поиск

(Free Jazz) Jason Stein's Locksmith Isidore - Three Less Than Between - 2009, FLAC (image+.cue), lossless

(Free Jazz) Jason Stein's Locksmith Isidore - Three Less Than Between - 2009, FLAC (image+.cue), lossless
Треклист:
Jason Stein's Locksmith Isidore - Three Less Than Between
Жанр: Free Jazz
Год выпуска диска: 2009
Производитель диска: Portugal (Clean Feed CF153)
Аудио кодек: FLAC
Тип рипа: image+.cue
Битрейт аудио: lossless
Продолжительность: 1:00:21
Jason Roebke bass
Jason Stein bass clarinet
Mike Pride drums
1. Protection and Provocation
2. Stevenesque
3. Lace Up with Air
4. Izn't Your Paper Clip
5. Saved by a Straw
6. Future Lungs
7. Three Less Than Between
8. Augusta Gun
9. Most Likely Illiterate
10. Amy Music
11. Sad Crestwood

 
Clean Feed Release Notes
On this second Locksmith Isidore release on Clean Feed Records, Jason Stein continues to redefine the bass clarinet as a lead instrument. Stein has developed his own personal voice on an instrument so few fully command. In his hands, the lower pitched specimen of the clarinet family is no longer merely a substitute for the saxophone, but is a primary instrument with its own inner logic and vocabulary. His devotion to the legacy of bass clarinet icon Eric Dolphy is apparent, though Stein's approach is clearly all his own. On Three Less Than Between, with Jason Roebke on bass (replacing Kevin Davis on cello) and Mike Pride on drums, Stein's compositions exhibit a full spectrum, from classic jazz trio to free music vehicle for experimentation. Roebke is a master of drive and propulsion, and underneath it all the sonic force of Mike Pride functions like a combustion engine. Add to this Stein's innovative language on the rarely used instrument--another page turned in history.
 
EAC Report
Exact Audio Copy V0.99 prebeta 5 from 4. May 2009
EAC extraction logfile from 5. December 2009, 14:48
Jason Stein's Locksmith Isidore / Three Less Than Between
Used drive : MATSHITADVD-RAM UJ-840S Adapter: 1 ID: 0
Read mode : Secure
Utilize accurate stream : Yes
Defeat audio cache : Yes
Make use of C2 pointers : No
Read offset correction : 102
Overread into Lead-In and Lead-Out : No
Fill up missing offset samples with silence : Yes
Delete leading and trailing silent blocks : No
Null samples used in CRC calculations : Yes
Used interface : Installed external ASPI interface
Used output format : User Defined Encoder
Selected bitrate : 1024 kBit/s
Quality : High
Add ID3 tag : No
Command line compressor : C:\Program Files\FLAC\flac.exe
Additional command line options : -6 -V -T "ARTIST=%a" -T "TITLE=%t" -T "ALBUM=%g" -T "DATE=%y" -T "TRACKNUMBER=%n" -T "GENRE=%m" -T "COMMENT=EAC FLAC -6" %s
TOC of the extracted CD
Track | Start | Length | Start sector | End sector
---------------------------------------------------------
1 | 0:00.00 | 5:39.17 | 0 | 25441
2 | 5:39.17 | 8:09.55 | 25442 | 62171
3 | 13:48.72 | 5:18.13 | 62172 | 86034
4 | 19:07.10 | 10:02.12 | 86035 | 131196
5 | 29:09.22 | 2:29.67 | 131197 | 142438
6 | 31:39.14 | 5:35.60 | 142439 | 167623
7 | 37:14.74 | 1:41.02 | 167624 | 175200
8 | 38:56.01 | 3:46.15 | 175201 | 192165
9 | 42:42.16 | 5:10.56 | 192166 | 215471
10 | 47:52.72 | 9:39.18 | 215472 | 258914
11 | 57:32.15 | 2:49.08 | 258915 | 271597
Range status and errors
Selected range
Filename C:\Documents and Settings\Igor\My Documents\My Music\eac\Jason Stein's Locksmith Isidore - Three Less Than Between.wav
Peak level 100.0 %
Range quality 100.0 %
Test CRC C921A37B
Copy CRC C921A37B
Copy OK
No errors occurred
AccurateRip summary
Track 1 not present in database
Track 2 not present in database
Track 3 not present in database
Track 4 not present in database
Track 5 not present in database
Track 6 not present in database
Track 7 not present in database
Track 8 not present in database
Track 9 not present in database
Track 10 not present in database
Track 11 not present in database
None of the tracks are present in the AccurateRip database
End of status report

Jason Stein's Locksmith Isidore - A Calculus of Loss (2008)
Any questions -> support@pro-jazz.com. По всем вопросам пишите -> support@pro-jazz.com
17:06
165
Нет комментариев. Ваш будет первым!