Вы используете незарегистрированную версию компонента "Вкладки"!

Поиск

(Post-Bop, Avant-Garde Jazz) Arthur Blythe Trio - Spirits In The Field - 2000, FLAC (tracks+.cue), lossless

Треклист:
Arthur Blythe Trio - Spirits In The Field
Жанр: Post-Bop, Avant-Garde Jazz
Страна-производитель диска: USA
Год издания диска: 2000
Издатель (лейбл): Savant Records Inc.
Номер по каталогу: SCD 2024
Аудиокодек: FLAC (*.flac)
Тип рипа: tracks+.cue
Битрейт аудио: lossless
Продолжительность: 57:46
Источник (релизер): собственный рип с оригинального диска.
Наличие сканов в содержимом раздачи: да
Треклист:
01. One Mint Julep
02. Miss Nancy
03. Odessa
04. Rambler
05. Spirits in the Field
06. Lenox Avenue Breakdown
07. Ah George, We Hardly Knew Ya
08. Break Tune #2
 
Лог создания рипа
Exact Audio Copy V0.99 prebeta 5 from 4. May 2009
EAC extraction logfile from 12. June 2011, 8:37
Arthur Blythe Trio / Spirits in the Field
Used drive : TSSTcorpCDDVDW SH-S222A Adapter: 1 ID: 0
Read mode : Secure
Utilize accurate stream : Yes
Defeat audio cache : Yes
Make use of C2 pointers : No
Read offset correction : 6
Overread into Lead-In and Lead-Out : No
Fill up missing offset samples with silence : Yes
Delete leading and trailing silent blocks : No
Null samples used in CRC calculations : Yes
Used interface : Installed external ASPI interface
Gap handling : Appended to previous track
Used output format : User Defined Encoder
Selected bitrate : 768 kBit/s
Quality : High
Add ID3 tag : No
Command line compressor : C:\Tool\Compress\FLAC\flac.exe
Additional command line options : -8 -V -T "ARTIST=%a" -T "TITLE=%t" -T "ALBUM=%g" -T "DATE=%y" -T "TRACKNUMBER=%n" -T "TOTALTRACKS=%x" -T "GENRE=%m" -T "ALBUM ARTIST=%v" -T "COMMENT=EAC V0.99 prebeta 5, Secure Mode, Test & Copy, AccurateRip, FLAC -8" %s
TOC of the extracted CD
Track | Start | Length | Start sector | End sector
---------------------------------------------------------
1 | 0:00.00 | 6:33.47 | 0 | 29521
2 | 6:33.47 | 7:26.67 | 29522 | 63038
3 | 14:00.39 | 10:59.30 | 63039 | 112493
4 | 24:59.69 | 9:29.54 | 112494 | 155222
5 | 34:29.48 | 3:24.28 | 155223 | 170550
6 | 37:54.01 | 6:37.03 | 170551 | 200328
7 | 44:31.04 | 7:23.46 | 200329 | 233599
8 | 51:54.50 | 5:55.62 | 233600 | 260286
Track 1
Filename C:\! UPLOAD\Arthur Blythe Trio - Spirits In The Field (2000) [FLAC] {Savant}\01 - One Mint Julep.wav
Pre-gap length 0:00:02.00
Peak level 100.0 %
Track quality 100.0 %
Test CRC 5394E2AD
Copy CRC 5394E2AD
Accurately ripped (confidence 5) [256664F8]
Copy OK
Track 2
Filename C:\! UPLOAD\Arthur Blythe Trio - Spirits In The Field (2000) [FLAC] {Savant}\02 - Miss Nancy.wav
Pre-gap length 0:00:02.00
Peak level 50.4 %
Track quality 100.0 %
Test CRC 991D1663
Copy CRC 991D1663
Accurately ripped (confidence 5) [96C5F497]
Copy OK
Track 3
Filename C:\! UPLOAD\Arthur Blythe Trio - Spirits In The Field (2000) [FLAC] {Savant}\03 - Odessa.wav
Pre-gap length 0:00:04.00
Peak level 96.6 %
Track quality 100.0 %
Test CRC 19A03D6D
Copy CRC 19A03D6D
Accurately ripped (confidence 5) [3A894B89]
Copy OK
Track 4
Filename C:\! UPLOAD\Arthur Blythe Trio - Spirits In The Field (2000) [FLAC] {Savant}\04 - Rambler.wav
Pre-gap length 0:00:04.00
Peak level 76.0 %
Track quality 100.0 %
Test CRC 8E461DC9
Copy CRC 8E461DC9
Accurately ripped (confidence 4) [9C0136DC]
Copy OK
Track 5
Filename C:\! UPLOAD\Arthur Blythe Trio - Spirits In The Field (2000) [FLAC] {Savant}\05 - Spirits in the Field.wav
Pre-gap length 0:00:04.00
Peak level 58.7 %
Track quality 100.0 %
Test CRC F640E962
Copy CRC F640E962
Accurately ripped (confidence 5) [DEE5BD6D]
Copy OK
Track 6
Filename C:\! UPLOAD\Arthur Blythe Trio - Spirits In The Field (2000) [FLAC] {Savant}\06 - Lenox Avenue Breakdown.wav
Pre-gap length 0:00:04.00
Peak level 98.7 %
Track quality 100.0 %
Test CRC 64E9C4F5
Copy CRC 64E9C4F5
Accurately ripped (confidence 4) [FF005AE6]
Copy OK
Track 7
Filename C:\! UPLOAD\Arthur Blythe Trio - Spirits In The Field (2000) [FLAC] {Savant}\07 - Ah George, We Hardly Knew You.wav
Pre-gap length 0:00:04.00
Peak level 62.3 %
Track quality 99.9 %
Test CRC 6EF418E5
Copy CRC 6EF418E5
Accurately ripped (confidence 5) [7263B5C5]
Copy OK
Track 8
Filename C:\! UPLOAD\Arthur Blythe Trio - Spirits In The Field (2000) [FLAC] {Savant}\08 - Break Tune #2.wav
Pre-gap length 0:00:04.00
Peak level 100.0 %
Track quality 100.0 %
Test CRC 611BC871
Copy CRC 611BC871
Accurately ripped (confidence 4) [1E3D15E2]
Copy OK
All tracks accurately ripped
No errors occurred
End of status report
 
Содержание индексной карты (.CUE)
REM GENRE Jazz
REM DATE 1999
REM DISCID 600D8E08
REM COMMENT "ExactAudioCopy v0.99pb5"
PERFORMER "Arthur Blythe Trio"
TITLE "Spirits in the Field"
FILE "01 - One Mint Julep.wav" WAVE
TRACK 01 AUDIO
TITLE "One Mint Julep"
PERFORMER "Arthur Blythe Trio"
INDEX 01 00:00:00
TRACK 02 AUDIO
TITLE "Miss Nancy"
PERFORMER "Arthur Blythe Trio"
INDEX 00 06:31:47
FILE "02 - Miss Nancy.wav" WAVE
INDEX 01 00:00:00
TRACK 03 AUDIO
TITLE "Odessa"
PERFORMER "Arthur Blythe Trio"
INDEX 00 07:22:67
FILE "03 - Odessa.wav" WAVE
INDEX 01 00:00:00
TRACK 04 AUDIO
TITLE "Rambler"
PERFORMER "Arthur Blythe Trio"
INDEX 00 10:55:30
FILE "04 - Rambler.wav" WAVE
INDEX 01 00:00:00
TRACK 05 AUDIO
TITLE "Spirits in the Field"
PERFORMER "Arthur Blythe Trio"
INDEX 00 09:25:54
FILE "05 - Spirits in the Field.wav" WAVE
INDEX 01 00:00:00
TRACK 06 AUDIO
TITLE "Lenox Avenue Breakdown"
PERFORMER "Arthur Blythe Trio"
INDEX 00 03:20:28
FILE "06 - Lenox Avenue Breakdown.wav" WAVE
INDEX 01 00:00:00
TRACK 07 AUDIO
TITLE "Ah George, We Hardly Knew You"
PERFORMER "Arthur Blythe Trio"
INDEX 00 06:33:03
FILE "07 - Ah George, We Hardly Knew You.wav" WAVE
INDEX 01 00:00:00
TRACK 08 AUDIO
TITLE "Break Tune #2"
PERFORMER "Arthur Blythe Trio"
INDEX 00 07:19:46
FILE "08 - Break Tune #2.wav" WAVE
INDEX 01 00:00:00
Доп. информация:
Recorded at Bim Huis, Amsterdam on June 24, 1999
 
Об альбоме (сборнике) ~~~ by Michael G. Nastos
On this live club date, recorded at the Bim Huis in Amsterdam, Blythe and his combo (tubaist Bob Stewart and drummer Cecil Brooks III) perform a nice cross section of his most familiar material. Blythe's husky, virile alto sax has never sounded better, and though the recording quality is a little thin, the music comes roaring through the speakers nonetheless. The good-time swinger "One Mint Julep" kicks things off, and is followed by the rambling bopper "Miss Nancy," which is the leader at perhaps his most quintessential. The showstopper is a reworked, energized "Odessa," on which Brooks uses his mallets to fine effect, Stewart blows a minimal but insistent tuba, and Blythe unfurls more of his startling improvisational legerdemain.
A quirky, elusive 9/8 rhythm informs the tuba modality of "Rambler," and the title track sports a sneaky melody and a short but free discourse without drums. The trio digs right in on "Lenox Avenue Breakdown," even dispensing with an intro. The slow waltz "Ah George, We Hardly Knew You" (written by Don Pullen for George Adams) and the funky and fat "Break Tune #2" close this satisfying set. In his insightful liner notes, Francis Davis questions Blythe's diminished cachet among critics. That he's moved back home to San Diego from New York City might be an issue, but it doesn't detract from the fact that Blythe's sound and vision remain as fresh and vital as ever.
 
Состав
Arthur Blythe – alto saxophone
Bob Stewart – tuba
Cecil Brooks III – drums
Any questions -> support@pro-jazz.com. По всем вопросам пишите -> support@pro-jazz.com
13:49
173
Нет комментариев. Ваш будет первым!