Вы используете незарегистрированную версию компонента "Вкладки"!

Поиск

(Free Jazz) Arthur Blythe - In Concert - 1991, FLAC (tracks+.cue), lossless

(Free Jazz) Arthur Blythe - In Concert - 1991, FLAC (tracks+.cue), lossless
Треклист:
Arthur Blythe - In Concert
Жанр: Free Jazz
Страна-производитель диска: USA
Год издания диска: 1991
Издатель (лейбл): India Navigation
Номер по каталогу: IN 1029 CD
Аудиокодек: FLAC (*.flac)
Тип рипа: tracks+.cue
Битрейт аудио: lossless
Продолжительность: 1:17:51
Источник (релизер): собственный рип с оригинального диска.
Наличие сканов в содержимом раздачи: да
Треклист:
01. My Son Ra 3:22
02. Lower Nile 4:02
03. As of Yet 12:37
04. The Grip 7:15
05. Sunrise Service 7:54
06. Metamorphosis 8:11
07. Spirits in the Field 8:36
08. Duet for Two 18:04
09. Shadows 7:50
 
Лог создания рипа
Exact Audio Copy V0.99 prebeta 5 from 4. May 2009
EAC extraction logfile from 12. June 2011, 9:57
Arthur Blythe / In Concert - Metamorphosis _The Grip
Used drive : TSSTcorpCDDVDW SH-S222A Adapter: 1 ID: 0
Read mode : Secure
Utilize accurate stream : Yes
Defeat audio cache : Yes
Make use of C2 pointers : No
Read offset correction : 6
Overread into Lead-In and Lead-Out : No
Fill up missing offset samples with silence : Yes
Delete leading and trailing silent blocks : No
Null samples used in CRC calculations : Yes
Used interface : Installed external ASPI interface
Gap handling : Appended to previous track
Used output format : User Defined Encoder
Selected bitrate : 768 kBit/s
Quality : High
Add ID3 tag : No
Command line compressor : C:\Tool\Compress\FLAC\flac.exe
Additional command line options : -8 -V -T "ARTIST=%a" -T "TITLE=%t" -T "ALBUM=%g" -T "DATE=%y" -T "TRACKNUMBER=%n" -T "TOTALTRACKS=%x" -T "GENRE=%m" -T "ALBUM ARTIST=%v" -T "COMMENT=EAC V0.99 prebeta 5, Secure Mode, Test & Copy, AccurateRip, FLAC -8" %s
TOC of the extracted CD
Track | Start | Length | Start sector | End sector
---------------------------------------------------------
1 | 0:00.00 | 3:22.73 | 0 | 15222
2 | 3:22.73 | 4:02.40 | 15223 | 33412
3 | 7:25.38 | 12:37.37 | 33413 | 90224
4 | 20:03.00 | 7:15.00 | 90225 | 122849
5 | 27:18.00 | 7:54.38 | 122850 | 158437
6 | 35:12.38 | 8:11.37 | 158438 | 195299
7 | 43:24.00 | 8:36.00 | 195300 | 233999
8 | 52:00.00 | 18:04.00 | 234000 | 315299
9 | 70:04.00 | 7:50.58 | 315300 | 350607
Track 1
Filename C:\! UPLOAD\Arthur Blythe - In Concert (1991) [FLAC] {India Navigation}\01 - My Sun Ra.wav
Pre-gap length 0:00:02.00
Peak level 23.2 %
Track quality 100.0 %
Test CRC FF63BA20
Copy CRC FF63BA20
Accurately ripped (confidence 6) [345469F0]
Copy OK
Track 2
Filename C:\! UPLOAD\Arthur Blythe - In Concert (1991) [FLAC] {India Navigation}\02 - Lower Nile.wav
Pre-gap length 0:00:00.97
Peak level 58.8 %
Track quality 100.0 %
Test CRC A7D70F32
Copy CRC A7D70F32
Accurately ripped (confidence 6) [B0242383]
Copy OK
Track 3
Filename C:\! UPLOAD\Arthur Blythe - In Concert (1991) [FLAC] {India Navigation}\03 - As Of Yet.wav
Pre-gap length 0:00:01.33
Peak level 95.7 %
Track quality 100.0 %
Test CRC B995E8D1
Copy CRC B995E8D1
Accurately ripped (confidence 6) [485EA8D6]
Copy OK
Track 4
Filename C:\! UPLOAD\Arthur Blythe - In Concert (1991) [FLAC] {India Navigation}\04 - The Grip.wav
Pre-gap length 0:00:00.40
Peak level 77.2 %
Track quality 99.9 %
Test CRC 6438D219
Copy CRC 6438D219
Accurately ripped (confidence 6) [E92CD5F6]
Copy OK
Track 5
Filename C:\! UPLOAD\Arthur Blythe - In Concert (1991) [FLAC] {India Navigation}\05 - Sunrise Service.wav
Pre-gap length 0:00:01.42
Peak level 35.6 %
Track quality 99.9 %
Test CRC 54FB61A1
Copy CRC 54FB61A1
Accurately ripped (confidence 5) [47EA31AF]
Copy OK
Track 6
Filename C:\! UPLOAD\Arthur Blythe - In Concert (1991) [FLAC] {India Navigation}\06 - Metamorphosis.wav
Pre-gap length 0:00:01.46
Peak level 94.8 %
Track quality 100.0 %
Test CRC 732C5427
Copy CRC 732C5427
Accurately ripped (confidence 5) [2268AECC]
Copy OK
Track 7
Filename C:\! UPLOAD\Arthur Blythe - In Concert (1991) [FLAC] {India Navigation}\07 - Spirits In The Field.wav
Pre-gap length 0:00:01.16
Peak level 63.4 %
Track quality 100.0 %
Test CRC 2485923E
Copy CRC 2485923E
Accurately ripped (confidence 5) [A76472F8]
Copy OK
Track 8
Filename C:\! UPLOAD\Arthur Blythe - In Concert (1991) [FLAC] {India Navigation}\08 - Duet For Two.wav
Pre-gap length 0:00:01.13
Peak level 45.2 %
Track quality 100.0 %
Test CRC 69B9DB80
Copy CRC 69B9DB80
Accurately ripped (confidence 4) [46B0526F]
Copy OK
Track 9
Filename C:\! UPLOAD\Arthur Blythe - In Concert (1991) [FLAC] {India Navigation}\09 - Shadows.wav
Pre-gap length 0:00:01.56
Peak level 66.0 %
Track quality 100.0 %
Test CRC 7FD6DA30
Copy CRC 7FD6DA30
Accurately ripped (confidence 4) [DC3285D7]
Copy OK
All tracks accurately ripped
No errors occurred
End of status report
 
Содержание индексной карты (.CUE)
REM GENRE Jazz
REM DATE 1977
REM DISCID 54124209
REM COMMENT "ExactAudioCopy v0.99pb5"
CATALOG 0000000000000
PERFORMER "Arthur Blythe"
TITLE "In Concert - Metamorphosis _The Grip"
FILE "01 - My Sun Ra.wav" WAVE
TRACK 01 AUDIO
TITLE "My Sun Ra"
PERFORMER "Arthur Blythe"
INDEX 01 00:00:00
TRACK 02 AUDIO
TITLE "Lower Nile"
PERFORMER "Arthur Blythe"
INDEX 00 03:22:00
FILE "02 - Lower Nile.wav" WAVE
INDEX 01 00:00:00
TRACK 03 AUDIO
TITLE "As Of Yet"
PERFORMER "Arthur Blythe"
INDEX 00 04:01:15
FILE "03 - As Of Yet.wav" WAVE
INDEX 01 00:00:00
TRACK 04 AUDIO
TITLE "The Grip"
PERFORMER "Arthur Blythe"
INDEX 00 12:37:07
FILE "04 - The Grip.wav" WAVE
INDEX 01 00:00:00
TRACK 05 AUDIO
TITLE "Sunrise Service"
PERFORMER "Arthur Blythe"
INDEX 00 07:13:43
FILE "05 - Sunrise Service.wav" WAVE
INDEX 01 00:00:00
TRACK 06 AUDIO
TITLE "Metamorphosis"
PERFORMER "Arthur Blythe"
INDEX 00 07:53:03
FILE "06 - Metamorphosis.wav" WAVE
INDEX 01 00:00:00
TRACK 07 AUDIO
TITLE "Spirits In The Field"
PERFORMER "Arthur Blythe"
INDEX 00 08:10:25
FILE "07 - Spirits In The Field.wav" WAVE
INDEX 01 00:00:00
TRACK 08 AUDIO
TITLE "Duet For Two"
PERFORMER "Arthur Blythe"
INDEX 00 08:34:65
FILE "08 - Duet For Two.wav" WAVE
INDEX 01 00:00:00
TRACK 09 AUDIO
TITLE "Shadows"
PERFORMER "Arthur Blythe"
INDEX 00 18:02:33
FILE "09 - Shadows.wav" WAVE
INDEX 01 00:00:00
Доп. информация:
"This CD consists all of the concert released on two LPs, as THE GRIP and METAMORPHOSIS and, except for a composition which is not on either LP or this CD, this is the entire concert."
Recorded live at The Brook, 40 W. 17 Street, New York City, February 26, 1977.
 
Об альбоме (сборнике) ~ Scott Yanow, All Music Guide
Altoist Arthur Blythe's first two recordings as a leader, The Grip and Metamorphosis, were recorded at the same concert; all of the two LP's contents are on this single CD. Blythe was already quite distinctive and an impressive improviser at this early stage, a year before he signed with Columbia. His sextet (which consists of trumpeter Ahmed Abdullah, cellist Abdul Wadud, tuba player Bob Stewart, drummer Steve Reid and percussionist Muhamad Abdullah) performs seven of Blythe's challenging originals and "Spirits in the Field" while the 18-minute "Duet for Two" is a free collaboration by the leader and Wadud.
 
Состав
Steve Reid - drums
Muhammad Abdullah - percussion
Ahmed Abdullah - trumpet
Arthur Blythe - alto sax
Bob Stewart - tuba
Abdul Wadud - cello
По всем вопросам пишите личное сообщение пользователю M0p94ok.
13:49
211
Нет комментариев. Ваш будет первым!