Вы используете незарегистрированную версию компонента "Вкладки"!

Поиск

(Contemporary Jazz, Avant-Garde Jazz) Lester Bowie - Phillip Wilson - Duet - 1994, FLAC (tracks+.cue), lossless

(Contemporary Jazz, Avant-Garde Jazz) Lester Bowie - Phillip Wilson - Duet - 1994, FLAC (tracks+.cue), lossless
Треклист:
Lester Bowie - Phillip Wilson - Duet
Жанр: Contemporary Jazz, Avant-Garde Jazz
Страна-производитель диска: Italy
Год издания диска: 1994
Издатель (лейбл): Improvising Artists Inc.
Номер по каталогу: IAI 123 854-2
Аудиокодек: FLAC (*.flac)
Тип рипа: tracks+.cue
Битрейт аудио: lossless
Продолжительность: 29:57
Источник (релизер): собственный рип с оригинального диска.
Наличие сканов в содержимом раздачи: да
Треклист:
01. Duet - 2:39
02. TBM - 14:36
03. Finale - 12:42
 
Лог создания рипа
Exact Audio Copy V0.99 prebeta 5 from 4. May 2009
EAC extraction logfile from 12. June 2011, 10:28
Lester Bowie, Phillip Wilson / Duet
Used drive : TSSTcorpCDDVDW SH-S222A Adapter: 1 ID: 0
Read mode : Secure
Utilize accurate stream : Yes
Defeat audio cache : Yes
Make use of C2 pointers : No
Read offset correction : 6
Overread into Lead-In and Lead-Out : No
Fill up missing offset samples with silence : Yes
Delete leading and trailing silent blocks : No
Null samples used in CRC calculations : Yes
Used interface : Installed external ASPI interface
Gap handling : Appended to previous track
Used output format : User Defined Encoder
Selected bitrate : 768 kBit/s
Quality : High
Add ID3 tag : No
Command line compressor : C:\Tool\Compress\FLAC\flac.exe
Additional command line options : -8 -V -T "ARTIST=%a" -T "TITLE=%t" -T "ALBUM=%g" -T "DATE=%y" -T "TRACKNUMBER=%n" -T "TOTALTRACKS=%x" -T "GENRE=%m" -T "ALBUM ARTIST=%v" -T "COMMENT=EAC V0.99 prebeta 5, Secure Mode, Test & Copy, AccurateRip, FLAC -8" %s
TOC of the extracted CD
Track | Start | Length | Start sector | End sector
---------------------------------------------------------
1 | 0:00.33 | 2:39.37 | 33 | 11994
2 | 2:39.70 | 14:36.50 | 11995 | 77744
3 | 17:16.45 | 12:42.63 | 77745 | 134957
Track 1
Filename C:\! UPLOAD\Lester Bowie - Phillip Wilson - Duet (1978) [FLAC] {IAI}\01 - Duet.wav
Pre-gap length 0:00:02.44
Peak level 95.4 %
Track quality 100.0 %
Test CRC E66D0B9C
Copy CRC E66D0B9C
Accurately ripped (confidence 1) [D262DE80]
Copy OK
Track 2
Filename C:\! UPLOAD\Lester Bowie - Phillip Wilson - Duet (1978) [FLAC] {IAI}\02 - TBM.wav
Peak level 96.4 %
Track quality 99.9 %
Test CRC E090BE23
Copy CRC E090BE23
Accurately ripped (confidence 1) [5247EA2A]
Copy OK
Track 3
Filename C:\! UPLOAD\Lester Bowie - Phillip Wilson - Duet (1978) [FLAC] {IAI}\03 - Final.wav
Peak level 100.0 %
Track quality 100.0 %
Test CRC EEC41E8B
Copy CRC EEC41E8B
Cannot be verified as accurate (confidence 1) [ABC87F0C], AccurateRip returned [D1967CFE]
Copy OK
2 track(s) accurately ripped
1 track(s) could not be verified as accurate
Some tracks could not be verified as accurate
No errors occurred
End of status report
 
Содержание индексной карты (.CUE)
REM GENRE "Contemporary Jazz"
REM DATE 1978
REM DISCID 16070703
REM COMMENT "ExactAudioCopy v0.99pb5"
PERFORMER "Lester Bowie, Phillip Wilson"
TITLE "Duet"
FILE "01 - Duet.wav" WAVE
TRACK 01 AUDIO
TITLE "Duet"
PERFORMER "Lester Bowie, Phillip Wilson"
PREGAP 00:00:33
INDEX 01 00:00:00
FILE "02 - TBM.wav" WAVE
TRACK 02 AUDIO
TITLE "TBM"
PERFORMER "Lester Bowie, Phillip Wilson"
INDEX 01 00:00:00
FILE "03 - Final.wav" WAVE
TRACK 03 AUDIO
TITLE "Final"
PERFORMER "Lester Bowie, Phillip Wilson"
INDEX 01 00:00:00
Доп. информация:
Recorded on 19 January 1978 at Blue Rock Studio, NYC.
 
Об альбоме (сборнике) ~ Michael G. Nastos, Rovi
There is a certain static electricity generated in this series of three duets from trumpeter Bowie and drummer/percussionist Wilson. Certainly they feed off each other's energy in counterpointed reverie, but the music goes beyond being merely spontaneous or made up on the spot. The cohesion and musicality they employ is purely delightful and eminently listenable over this 40-minute span. "Duet" is a shortie at just under three minutes, with Wilson's swing-to-Caribbean drum rhythms powering up Bowie's bold trumpet. "TBM" is just under 15 minutes, and Bowie quotes a variety of different lines, not the least of which is the Art Blakey/Jazz Messengers/Lee Morgan interpretation of "Three Blind Mice." They're hardly sightless, but insightful as they read each other's musical thoughts like bold, large print pages. "Finale" has Bowie more extroverted and bluesy — quoting march exercises, holding long quieter notes, using short staccato blasts of power and Irish jig inferences, or running the table with his bleating, lightning fast runs that trademark his sound.
Wilson gets more animated and at times Oriental sounding, but is generally free to insert phrases of snare, tom tom bass drums, and cymbals in whatever spontaneous fashion he chooses. He does a brief, heavy handed drum solo that is very R&B-ish in nature — the root of these two master musicians' upbringing. This is not as heady as it is clean and solid, and is a very enjoyable listening experience. It's a CD Bowie fans should cherish, and serves well as an intro to the original Art Ensemble and ex-Paul Butterfield drummer, whose acclaim is still not near what his immense talent indicates.
 
Состав
Lester Bowie – trumpet
Phillip Wilson – drums
Any questions -> support@pro-jazz.com. По всем вопросам пишите -> support@pro-jazz.com
13:48
196
Нет комментариев. Ваш будет первым!