Вы используете незарегистрированную версию компонента "Вкладки"!

Поиск

(Avant-Garde Jazz, Free Jazz) Frank Lowe Quintet - Exotic Heartbreak - 1993, FLAC (tracks+.cue), lossless

(Avant-Garde Jazz, Free Jazz) Frank Lowe Quintet - Exotic Heartbreak - 1993, FLAC (tracks+.cue), lossless
Треклист:
Frank Lowe Quintet - Exotic Heartbreak
Жанр: Avant-Garde Jazz, Free Jazz
Страна-производитель диска: Italy
Год издания диска: 1993
Издатель (лейбл): Soul Note Records
Номер по каталогу: SN 121 032-2
Аудиокодек: FLAC (*.flac)
Тип рипа: tracks+.cue
Битрейт аудио: lossless
Продолжительность: 40:27
Источник (релизер): собственный рип с оригинального диска.
Наличие сканов в содержимом раздачи: да
Треклист:
01. Perfection (Ornette Coleman) 7:51
02. Close to the Soul (Lowe, arr. Lowe/B. Morris) 8:02
03. Broadway Rhumba (Lowe) 3:24
04. Addiction Ain't No Fiction (Lowe, arr. Lowe/B. Morris) 6:56
05. Exotic Heartbreak (Lowe, arr. Lowe/Myers) 8:18
06. Be Prepared (Lowe, arr. Lowe/B. Morris) 5:34
 
Лог создания рипа
Exact Audio Copy V0.99 prebeta 5 from 4. May 2009
EAC extraction logfile from 22. June 2011, 8:37
Frank Lowe Quintet / Exotic Heartbreak
Used drive : TSSTcorpCDDVDW SH-S222A Adapter: 1 ID: 0
Read mode : Secure
Utilize accurate stream : Yes
Defeat audio cache : Yes
Make use of C2 pointers : No
Read offset correction : 6
Overread into Lead-In and Lead-Out : No
Fill up missing offset samples with silence : Yes
Delete leading and trailing silent blocks : No
Null samples used in CRC calculations : Yes
Used interface : Installed external ASPI interface
Gap handling : Appended to previous track
Used output format : User Defined Encoder
Selected bitrate : 768 kBit/s
Quality : High
Add ID3 tag : No
Command line compressor : C:\Tool\Compress\FLAC\flac.exe
Additional command line options : -8 -V -T "ARTIST=%a" -T "TITLE=%t" -T "ALBUM=%g" -T "DATE=%y" -T "TRACKNUMBER=%n" -T "TOTALTRACKS=%x" -T "GENRE=%m" -T "ALBUM ARTIST=%v" -T "COMMENT=EAC V0.99 prebeta 5, Secure Mode, Test & Copy, AccurateRip, FLAC -8" %s
TOC of the extracted CD
Track | Start | Length | Start sector | End sector
---------------------------------------------------------
1 | 0:00.32 | 7:55.18 | 32 | 35674
2 | 7:55.50 | 8:06.00 | 35675 | 72124
3 | 16:01.50 | 3:29.50 | 72125 | 87849
4 | 19:31.25 | 7:00.50 | 87850 | 119399
5 | 26:32.00 | 8:21.25 | 119400 | 156999
6 | 34:53.25 | 5:36.50 | 157000 | 182249
Track 1
Filename C:\! UPLOAD\Frank Lowe Quintet - Exotic Heartbreak (1993) [FLAC] {Soul Note}\01 - Perfection.wav
Pre-gap length 0:00:02.42
Peak level 100.0 %
Track quality 100.0 %
Test CRC FCE875F2
Copy CRC FCE875F2
Track not present in AccurateRip database
Copy OK
Track 2
Filename C:\! UPLOAD\Frank Lowe Quintet - Exotic Heartbreak (1993) [FLAC] {Soul Note}\02 - Close To The Soul.wav
Peak level 97.2 %
Track quality 100.0 %
Test CRC B31D8E1D
Copy CRC B31D8E1D
Track not present in AccurateRip database
Copy OK
Track 3
Filename C:\! UPLOAD\Frank Lowe Quintet - Exotic Heartbreak (1993) [FLAC] {Soul Note}\03 - Broadway Rhumba.wav
Peak level 97.2 %
Track quality 100.0 %
Test CRC 967F8CE1
Copy CRC 967F8CE1
Track not present in AccurateRip database
Copy OK
Track 4
Filename C:\! UPLOAD\Frank Lowe Quintet - Exotic Heartbreak (1993) [FLAC] {Soul Note}\04 - Addiction Ain't Fiction.wav
Peak level 88.4 %
Track quality 100.0 %
Test CRC 34C15C16
Copy CRC 34C15C16
Track not present in AccurateRip database
Copy OK
Track 5
Filename C:\! UPLOAD\Frank Lowe Quintet - Exotic Heartbreak (1993) [FLAC] {Soul Note}\05 - Exotic Heartbreak.wav
Peak level 90.7 %
Track quality 100.0 %
Test CRC 57336018
Copy CRC 57336018
Track not present in AccurateRip database
Copy OK
Track 6
Filename C:\! UPLOAD\Frank Lowe Quintet - Exotic Heartbreak (1993) [FLAC] {Soul Note}\06 - Be Prepared.wav
Peak level 92.7 %
Track quality 100.0 %
Test CRC C80B469B
Copy CRC C80B469B
Track not present in AccurateRip database
Copy OK
None of the tracks are present in the AccurateRip database
No errors occurred
End of status report
 
Содержание индексной карты (.CUE)
REM GENRE Jazz
REM DATE 1981
REM DISCID 55097E06
REM COMMENT "ExactAudioCopy v0.99pb5"
PERFORMER "Frank Lowe Quintet"
TITLE "Exotic Heartbreak"
FILE "01 - Perfection.wav" WAVE
TRACK 01 AUDIO
TITLE "Perfection"
PERFORMER "Frank Lowe Quintet"
PREGAP 00:00:32
INDEX 01 00:00:00
FILE "02 - Close To The Soul.wav" WAVE
TRACK 02 AUDIO
TITLE "Close To The Soul"
PERFORMER "Frank Lowe Quintet"
INDEX 01 00:00:00
FILE "03 - Broadway Rhumba.wav" WAVE
TRACK 03 AUDIO
TITLE "Broadway Rhumba"
PERFORMER "Frank Lowe Quintet"
INDEX 01 00:00:00
FILE "04 - Addiction Ain't Fiction.wav" WAVE
TRACK 04 AUDIO
TITLE "Addiction Ain't Fiction"
PERFORMER "Frank Lowe Quintet"
INDEX 01 00:00:00
FILE "05 - Exotic Heartbreak.wav" WAVE
TRACK 05 AUDIO
TITLE "Exotic Heartbreak"
PERFORMER "Frank Lowe Quintet"
INDEX 01 00:00:00
FILE "06 - Be Prepared.wav" WAVE
TRACK 06 AUDIO
TITLE "Be Prepared"
PERFORMER "Frank Lowe Quintet"
INDEX 01 00:00:00
Доп. информация:
Recorded at Barigozzi Studios, Milano, October 22-23, 1981.
 
Состав
Frank Lowe - ts
Butch Morris - cornet
Amina Claudine Myers - piano
Wilber Morris - bass
Tim Pleasant - drums
Any questions -> support@pro-jazz.com. По всем вопросам пишите -> support@pro-jazz.com
13:50
147
Нет комментариев. Ваш будет первым!