Вы используете незарегистрированную версию компонента "Вкладки"!

Поиск

(Free Jazz) Anthony Braxton & Georg Grawe (Graewe) - Duo (Amsterdam) 1991 {Okkadisk OD12018, USA} - 1997, FLAC (tracks+.cue) lossless

(Free Jazz) Anthony Braxton & Georg Grawe (Graewe) - Duo (Amsterdam) 1991 {Okkadisk OD12018, USA} - 1997, FLAC (tracks+.cue) lossless
Треклист:
Anthony Braxton & Georg Gräwe - Duo (Amsterdam) 1991
Жанр: Free Jazz
Страна-производитель диска: USA
Год издания диска: 1997
Издатель (лейбл): Okkadisk
Номер по каталогу: OD12018
Аудио кодек: FLAC (*.flac)
Тип рипа: tracks+.cue
Битрейт аудио: lossless
Продолжительность: 00:45:55
Источник (релизер): mishka1981
Наличие сканов в содержимом раздачи: да
Треклист:
Duet I (25:12)
Duet II (16:00)
Duet III (04:43)
Recorded live at October Meeting 1991, Amsterdam, Holland at Cristofori by Chris Weeda.
Personnel:
Anthony Braxton - SS, Cl, Fl, AS
Georg Gräwe - Piano
 
Лог создания рипа (EAC Log)
Exact Audio Copy V1.0 beta 1 from 15. November 2010
EAC extraction logfile from 23. June 2011, 14:19
Anthony Braxton & Georg Graewe / Anthony Braxton Georg Gräwe duo (amsterdam) 1991
Used drive : Optiarc DVD RW AD-7710H Adapter: 1 ID: 0
Read mode : Secure
Utilize accurate stream : Yes
Defeat audio cache : Yes
Make use of C2 pointers : No
Read offset correction : 48
Overread into Lead-In and Lead-Out : No
Fill up missing offset samples with silence : Yes
Delete leading and trailing silent blocks : No
Null samples used in CRC calculations : Yes
Used interface : Native Win32 interface for Win NT & 2000
Gap handling : Appended to previous track
Used output format : User Defined Encoder
Selected bitrate : 896 kBit/s
Quality : High
Add ID3 tag : No
Command line compressor : C:\Program Files\Exact Audio Copy\FLAC\FLAC.EXE
Additional command line options : -8 -V -T "ARTIST=%a" -T "TITLE=%t" -T "ALBUM=%g" -T "DATE=%y" -T "TRACKNUMBER=%n" -T "GENRE=%m" -T "COMMENT=%e" %j--picture="%i"%j %s -o %d
TOC of the extracted CD
Track | Start | Length | Start sector | End sector
---------------------------------------------------------
1 | 0:00.00 | 25:12.57 | 0 | 113456
2 | 25:12.57 | 15:59.40 | 113457 | 185421
3 | 41:12.22 | 4:43.20 | 185422 | 206666
Track 1
Filename C:\MY RIPS\01 - Duet I.wav
Pre-gap length 0:00:02.00
Peak level 100.0 %
Extraction speed 3.9 X
Track quality 100.0 %
Test CRC 22609E43
Copy CRC 22609E43
Accurately ripped (confidence 2) [CBF11FC7]
Copy OK
Track 2
Filename C:\MY RIPS\02 - Duet II.wav
Peak level 97.6 %
Extraction speed 5.2 X
Track quality 100.0 %
Test CRC 48DDC6B3
Copy CRC 48DDC6B3
Accurately ripped (confidence 2) [5115F5F5]
Copy OK
Track 3
Filename C:\MY RIPS\03 - Duet III.wav
Pre-gap length 0:00:03.52
Peak level 92.0 %
Extraction speed 4.3 X
Track quality 99.9 %
Test CRC 4013E8C2
Copy CRC 4013E8C2
Accurately ripped (confidence 2) [0963F3F7]
Copy OK
All tracks accurately ripped
No errors occurred
End of status report
==== Log checksum 5308F7CB6F18FA0E1DB5BDDDCC14AD115D3E23BB9266750D4A93CD95FAE6FDA5 ====
 
Содержание индексной карты (.CUE)
REM GENRE Jazz
REM DATE 1991
REM DISCID 1E0AC303
REM COMMENT "ExactAudioCopy v1.0b1"
PERFORMER "Anthony Braxton & Georg Graewe"
TITLE "Anthony Braxton Georg Grawe duo (amsterdam) 1991"
FILE "01 - Duet I.wav" WAVE
TRACK 01 AUDIO
TITLE "Duet I"
PERFORMER "Anthony Braxton & Georg Graewe"
INDEX 01 00:00:00
FILE "02 - Duet II.wav" WAVE
TRACK 02 AUDIO
TITLE "Duet II"
PERFORMER "Anthony Braxton & Georg Graewe"
INDEX 01 00:00:00
TRACK 03 AUDIO
TITLE "Duet III"
PERFORMER "Anthony Braxton & Georg Graewe"
INDEX 00 15:55:63
FILE "03 - Duet III.wav" WAVE
INDEX 01 00:00:00
По всем вопросам пишите личное сообщение пользователю M0p94ok.
13:51
214
Нет комментариев. Ваш будет первым!