Поиск

(Post-Bop, African Jazz, World Fusion) Abdullah Ibrahim Trio - Cape Town Revisited - 2000, FLAC (tracks+.cue), lossless

(Post-Bop, African Jazz, World Fusion) Abdullah Ibrahim Trio - Cape Town Revisited - 2000, FLAC (tracks+.cue), lossless
Треклист:
Abdullah Ibrahim Trio / Cape Town Revisited
Жанр: Post-Bop, African Jazz, World Fusion
Страна-производитель диска: Germany
Год издания: 2000
Издатель (лейбл): Enja Records
Номер по каталогу: TIP-888 836 2
Аудиокодек: FLAC (*.flac)
Тип рипа: tracks+.cue
Битрейт аудио: lossless
Продолжительность: 58:37
Источник (релизер): Max Monteiro
Наличие сканов в содержимом раздачи: да
Треклист:
01. Damara Blue 4:06
02. Someday Soon Sweet Samba 4:46
03. Cape Town to Congo Square – 1st Movement: African Street Parade 7:36
04. Cape Town to Congo Square – 2nd Movement: District Six Carnival 2:04
05. Song for Sathima 3:27
06. Cape Town to Congo Square – 3rd Movement: Too-Kah 2:00
07. Tintinyana 3:47
08. Tuang Guru 6:16
09. Eleventh Hour 3:56
10. Water from an Ancient Well 5:42
11. Tsakwe – Royal Blue 3:20
12. Soweto 4:08
13. The Mountain 2:17
14. The Wedding 2:12
15. Barakaat (The Blessing) 3:01
All compositions by Abdullah Ibrahim.
Recorded live at Spier Estate, Cape Town, South Africa on December 13, 1997.
Abdullah Ibrahim – Piano
Marcus McLaurine – Bass
George Gray – Drums
Guest :
Feya Faku – Trumpet on 7, 11, 12
 
Лог создания рипа
Exact Audio Copy V1.0 beta 3 from 29. August 2011
EAC extraction logfile from 24. July 2013, 21:28
Abdullah Ibrahim Trio / Cape Town Revisited
Used drive : SlimtypeeNAU508 5 Adapter: 1 ID: 0
Read mode : Secure
Utilize accurate stream : Yes
Defeat audio cache : Yes
Make use of C2 pointers : No
Read offset correction : 6
Overread into Lead-In and Lead-Out : No
Fill up missing offset samples with silence : Yes
Delete leading and trailing silent blocks : No
Null samples used in CRC calculations : Yes
Used interface : Native Win32 interface for Win NT & 2000
Gap handling : Appended to previous track
Used output format : User Defined Encoder
Selected bitrate : 768 kBit/s
Quality : High
Add ID3 tag : No
Command line compressor : C:\Program Files (x86)\Exact Audio Copy\Flac\flac.exe
Additional command line options : -8 -V -T "ARTIST=%artist%" -T "TITLE=%title%" -T "ALBUM=%albumtitle%" -T "DATE=%year%" -T "TRACKNUMBER=%tracknr%" -T "GENRE=%genre%" -T "PERFORMER=%albuminterpret%" -T "COMPOSER=%composer%" %haslyrics%--tag-from-file=LYRICS="%lyricsfile%"%haslyrics% -T "ALBUMARTIST=%albumartist%" -T "DISCNUMBER=%cdnumber%" -T "TOTALDISCS=%totalcds%" -T "TOTALTRACKS=%numtracks%" -T "COMMENT=%comment%" %source% -o %dest%
TOC of the extracted CD
Track | Start | Length | Start sector | End sector
---------------------------------------------------------
1 | 0:00.00 | 4:05.41 | 0 | 18415
2 | 4:05.41 | 4:45.50 | 18416 | 39840
3 | 8:51.16 | 7:36.17 | 39841 | 74057
4 | 16:27.33 | 2:04.04 | 74058 | 83361
5 | 18:31.37 | 3:26.48 | 83362 | 98859
6 | 21:58.10 | 2:00.16 | 98860 | 107875
7 | 23:58.26 | 3:47.19 | 107876 | 124919
8 | 27:45.45 | 6:15.45 | 124920 | 153089
9 | 34:01.15 | 3:56.35 | 153090 | 170824
10 | 37:57.50 | 5:42.13 | 170825 | 196487
11 | 43:39.63 | 3:19.59 | 196488 | 211471
12 | 46:59.47 | 4:07.39 | 211472 | 230035
13 | 51:07.11 | 2:16.42 | 230036 | 240277
14 | 53:23.53 | 2:11.71 | 240278 | 250173
15 | 55:35.49 | 3:01.17 | 250174 | 263765
Track 1
Filename C:\EAC rips\01 - Damara Blue.wav
Pre-gap length 0:00:02.00
Peak level 72.0 %
Extraction speed 2.2 X
Track quality 100.0 %
Test CRC D3B093DF
Copy CRC D3B093DF
Accurately ripped (confidence 15) [411B2FCB] (AR v2)
Copy OK
Track 2
Filename C:\EAC rips\02 - Someday Soon Sweet Samba.wav
Peak level 99.7 %
Extraction speed 2.6 X
Track quality 100.0 %
Test CRC B97786AE
Copy CRC B97786AE
Accurately ripped (confidence 16) [EE35980A] (AR v2)
Copy OK
Track 3
Filename C:\EAC rips\03 - Cape Town to Congo Square - 1st Movement - African Street Parade.wav
Peak level 99.7 %
Extraction speed 3.0 X
Track quality 100.0 %
Test CRC C1073D05
Copy CRC C1073D05
Accurately ripped (confidence 16) [40EA5A9A] (AR v2)
Copy OK
Track 4
Filename C:\EAC rips\04 - Cape Town to Congo Square - 2nd Movement - District Six Carnival.wav
Peak level 72.7 %
Extraction speed 2.7 X
Track quality 100.0 %
Test CRC F5C56AB9
Copy CRC F5C56AB9
Accurately ripped (confidence 16) [8B813E16] (AR v2)
Copy OK
Track 5
Filename C:\EAC rips\05 - Song for Sathima.wav
Peak level 74.4 %
Extraction speed 3.1 X
Track quality 100.0 %
Test CRC 8A68C038
Copy CRC 8A68C038
Accurately ripped (confidence 16) [2E0B57D9] (AR v2)
Copy OK
Track 6
Filename C:\EAC rips\06 - Cape Town to Congo Square - 3nd Movement - Too-Kah.wav
Peak level 89.2 %
Extraction speed 2.9 X
Track quality 100.0 %
Test CRC 03BC9C34
Copy CRC 03BC9C34
Accurately ripped (confidence 16) [1A7B8AB7] (AR v2)
Copy OK
Track 7
Filename C:\EAC rips\07 - Tintinyana.wav
Peak level 99.7 %
Extraction speed 3.4 X
Track quality 100.0 %
Test CRC 962DF88B
Copy CRC 962DF88B
Accurately ripped (confidence 16) [9AB7D0B1] (AR v2)
Copy OK
Track 8
Filename C:\EAC rips\08 - Tuang Guru.wav
Peak level 99.7 %
Extraction speed 3.8 X
Track quality 100.0 %
Test CRC 249F93E3
Copy CRC 249F93E3
Accurately ripped (confidence 15) [CDC92488] (AR v2)
Copy OK
Track 9
Filename C:\EAC rips\09 - Eleventh Hour.wav
Peak level 59.1 %
Extraction speed 3.8 X
Track quality 100.0 %
Test CRC 2C375166
Copy CRC 2C375166
Accurately ripped (confidence 16) [D08973D2] (AR v2)
Copy OK
Track 10
Filename C:\EAC rips\10 - Water from an Ancient Well.wav
Peak level 99.7 %
Extraction speed 4.2 X
Track quality 100.0 %
Test CRC F6742445
Copy CRC F6742445
Accurately ripped (confidence 16) [1F35AD1C] (AR v2)
Copy OK
Track 11
Filename C:\EAC rips\11 - Tsakwe - Royal Blue.wav
Peak level 99.7 %
Extraction speed 4.0 X
Track quality 100.0 %
Test CRC 3327A632
Copy CRC 3327A632
Accurately ripped (confidence 16) [93C4F605] (AR v2)
Copy OK
Track 12
Filename C:\EAC rips\12 - Soweto.wav
Peak level 99.7 %
Extraction speed 4.2 X
Track quality 100.0 %
Test CRC D728C7D2
Copy CRC D728C7D2
Accurately ripped (confidence 16) [B99C28DE] (AR v2)
Copy OK
Track 13
Filename C:\EAC rips\13 - The Mountain.wav
Peak level 49.0 %
Extraction speed 3.9 X
Track quality 100.0 %
Test CRC 6DE705D4
Copy CRC 6DE705D4
Accurately ripped (confidence 16) [825EEBF5] (AR v2)
Copy OK
Track 14
Filename C:\EAC rips\14 - The Wedding.wav
Peak level 40.0 %
Extraction speed 4.0 X
Track quality 100.0 %
Test CRC 0FB0F2C5
Copy CRC 0FB0F2C5
Accurately ripped (confidence 16) [6831393C] (AR v2)
Copy OK
Track 15
Filename C:\EAC rips\15 - Barakaat (The Blessing).wav
Peak level 69.7 %
Extraction speed 4.3 X
Track quality 100.0 %
Test CRC 5A6DF602
Copy CRC 5A6DF602
Accurately ripped (confidence 16) [00AD7E85] (AR v2)
Copy OK
All tracks accurately ripped
No errors occurred
End of status report
---- CUETools DB Plugin V2.1.4
[CTDB TOCID: sKmdpS1FmVATJGTrFIH8NWpd4W4-] found
Submit result: sKmdpS1FmVATJGTrFIH8NWpd4W4- has been confirmed
Track | CTDB Status
1 | (12/12) Accurately ripped
2 | (12/12) Accurately ripped
3 | (12/12) Accurately ripped
4 | (12/12) Accurately ripped
5 | (12/12) Accurately ripped
6 | (12/12) Accurately ripped
7 | (12/12) Accurately ripped
8 | (12/12) Accurately ripped
9 | (12/12) Accurately ripped
10 | (12/12) Accurately ripped
11 | (12/12) Accurately ripped
12 | (12/12) Accurately ripped
13 | (12/12) Accurately ripped
14 | (12/12) Accurately ripped
15 | (12/12) Accurately ripped
==== Log checksum B02902D10F2D8F71F8849140B45C31F59AE33F9BB98B4C4680C3F6FB2EFA5A37 ====
 
Содержание индексной карты (.CUE)
REM GENRE Jazz
REM DATE 2000
REM DISCID BE0DBC0F
REM COMMENT "ExactAudioCopy v1.0b3"
PERFORMER "Abdullah Ibrahim Trio"
TITLE "Cape Town Revisited"
FILE "01 - Damara Blue.wav" WAVE
TRACK 01 AUDIO
TITLE "Damara Blue"
PERFORMER "Abdullah Ibrahim Trio"
ISRC DEA590013601
INDEX 01 00:00:00
FILE "02 - Someday Soon Sweet Samba.wav" WAVE
TRACK 02 AUDIO
TITLE "Someday Soon Sweet Samba"
PERFORMER "Abdullah Ibrahim Trio"
ISRC DEA590013602
INDEX 01 00:00:00
FILE "03 - Cape Town to Congo Square - 1st Movement - African Street Parade.wav" WAVE
TRACK 03 AUDIO
TITLE "Cape Town to Congo Square - 1st Movement: African Street Parade"
PERFORMER "Abdullah Ibrahim Trio"
ISRC DEA590013603
INDEX 01 00:00:00
FILE "04 - Cape Town to Congo Square - 2nd Movement - District Six Carnival.wav" WAVE
TRACK 04 AUDIO
TITLE "Cape Town to Congo Square - 2nd Movement: District Six Carnival"
PERFORMER "Abdullah Ibrahim Trio"
ISRC DEA590013604
INDEX 01 00:00:00
FILE "05 - Song for Sathima.wav" WAVE
TRACK 05 AUDIO
TITLE "Song for Sathima"
PERFORMER "Abdullah Ibrahim Trio"
ISRC DEA590013605
INDEX 01 00:00:00
FILE "06 - Cape Town to Congo Square - 3nd Movement - Too-Kah.wav" WAVE
TRACK 06 AUDIO
TITLE "Cape Town to Congo Square - 3nd Movement: Too-Kah"
PERFORMER "Abdullah Ibrahim Trio"
ISRC DEA590013606
INDEX 01 00:00:00
FILE "07 - Tintinyana.wav" WAVE
TRACK 07 AUDIO
TITLE "Tintinyana"
PERFORMER "Abdullah Ibrahim Trio"
ISRC DEA590013607
INDEX 01 00:00:00
FILE "08 - Tuang Guru.wav" WAVE
TRACK 08 AUDIO
TITLE "Tuang Guru"
PERFORMER "Abdullah Ibrahim Trio"
ISRC DEA590013608
INDEX 01 00:00:00
FILE "09 - Eleventh Hour.wav" WAVE
TRACK 09 AUDIO
TITLE "Eleventh Hour"
PERFORMER "Abdullah Ibrahim Trio"
ISRC DEA590013609
INDEX 01 00:00:00
FILE "10 - Water from an Ancient Well.wav" WAVE
TRACK 10 AUDIO
TITLE "Water from an Ancient Well"
PERFORMER "Abdullah Ibrahim Trio"
ISRC DEA590013610
INDEX 01 00:00:00
FILE "11 - Tsakwe - Royal Blue.wav" WAVE
TRACK 11 AUDIO
TITLE "Tsakwe - Royal Blue"
PERFORMER "Abdullah Ibrahim Trio"
ISRC DEA590013611
INDEX 01 00:00:00
FILE "12 - Soweto.wav" WAVE
TRACK 12 AUDIO
TITLE "Soweto"
PERFORMER "Abdullah Ibrahim Trio"
ISRC DEA590013612
INDEX 01 00:00:00
FILE "13 - The Mountain.wav" WAVE
TRACK 13 AUDIO
TITLE "The Mountain"
PERFORMER "Abdullah Ibrahim Trio"
ISRC DEA590013613
INDEX 01 00:00:00
FILE "14 - The Wedding.wav" WAVE
TRACK 14 AUDIO
TITLE "The Wedding"
PERFORMER "Abdullah Ibrahim Trio"
ISRC DEA590013614
INDEX 01 00:00:00
FILE "15 - Barakaat (The Blessing).wav" WAVE
TRACK 15 AUDIO
TITLE "Barakaat (The Blessing)"
PERFORMER "Abdullah Ibrahim Trio"
ISRC DEA590013615
INDEX 01 00:00:00
12:52
642
Нет комментариев. Ваш будет первым!