Поиск

(World Fusion, Latin Jazz) Herbie Mann - Live At The Whiskey A Go Go (1969) + Mississippi Gambler (1972) - 2001, FLAC (tracks+.cue), lossless

(World Fusion, Latin Jazz) Herbie Mann - Live At The Whiskey A Go Go (1969) + Mississippi Gambler (1972) - 2001, FLAC (tracks+.cue), lossless
Треклист:
Herbie Mann – Live At The Whiskey A Go Go (1969) + Mississippi Gambler (1972)
Жанр: World Fusion, Latin Jazz
Год издания: 2001
Издатель (лейбл): Collectables
Номер по каталогу: COL-CD-6883
Аудиокодек: FLAC (*.flac)
Тип рипа: tracks+.cue
Битрейт аудио: lossless
Продолжительность: 68:34
Источник (релизер): What.cd (MrMonkey)
Наличие сканов в содержимом раздачи: нет
Треклист:
   Live At The Whiskey A Go Go
01. Ooh Baby (15:08)
02. Philly Dog (14:07)
   Mississippi Gambler
03. Swing Low Sweet Chariot (5:29)
04. Mississippi Gambler (6:52)
05. Dippermouth (8:53)
06. Respect Yourself (5:27)
07. I've Been Loving You Too Long (5:50)
08. (I Can't Get No) Satisfaction (6:50)
Personnel on tracks 1 & 2:
Herbie Mann - fl
Roy Ayers - vib
Sonny Sharrock - g
Miroslav Vitous - b
Bruno Carr - d
Rec.: live at The Whiskey A Go Go, Los Angeles, Hollywood, June 7, 1969.
Personnel on tracks 3-8:
Herbie Mann - fl
David Newman - ts, fl
Reggie Young - g
John Christopher - g
Bobby Wood - el-p
Bobby Emmons - org
Mike Leach - b
Gene Chrisman - d
Carlos "Patato" Valdes - cga
Rec.: American Sound Studios, Memphis, TN, February 11, 1972.
 
 
Лог создания рипа
Exact Audio Copy V1.0 beta 3 from 29. August 2011
EAC extraction logfile from 22. April 2012, 20:26
Herbie Mann / Live At The Whiskey A Go Go / Mississippi Gambler
Used drive : TSSTcorpCDDVDW TS-L633C Adapter: 3 ID: 0
Read mode : Secure
Utilize accurate stream : Yes
Defeat audio cache : Yes
Make use of C2 pointers : No
Read offset correction : 6
Overread into Lead-In and Lead-Out : No
Fill up missing offset samples with silence : Yes
Delete leading and trailing silent blocks : No
Null samples used in CRC calculations : Yes
Used interface : Native Win32 interface for Win NT & 2000
Gap handling : Appended to previous track
Used output format : User Defined Encoder
Selected bitrate : 896 kBit/s
Quality : High
Add ID3 tag : No
Command line compressor : C:\Program Files (x86)\Trader's Little Helper\CmdlineApps\flac.exe
Additional command line options : -8 -V -T "ARTIST=%artist%" -T "TITLE=%title%" -T "ALBUM=%albumtitle%" -T "DATE=%year%" -T "TRACKNUMBER=%tracknr%" -T "GENRE=%genre%" -T "PERFORMER=%albuminterpret%" -T "COMPOSER=%composer%" %haslyrics%--tag-from-file=LYRICS="%lyricsfile%"%haslyrics% -T "ALBUMARTIST=%albumartist%" -T "DISCNUMBER=%cdnumber%" -T "TOTALDISCS=%totalcds%" -T "TOTALTRACKS=%numtracks%" -T "COMMENT=%comment%" %source% -o %dest%
TOC of the extracted CD
Track | Start | Length | Start sector | End sector
---------------------------------------------------------
1 | 0:00.00 | 15:07.56 | 0 | 68080
2 | 15:07.56 | 14:06.46 | 68081 | 131576
3 | 29:14.27 | 5:28.42 | 131577 | 156218
4 | 34:42.69 | 6:51.65 | 156219 | 187108
5 | 41:34.59 | 8:52.48 | 187109 | 227056
6 | 50:27.32 | 5:26.64 | 227057 | 251570
7 | 55:54.21 | 5:49.60 | 251571 | 277805
8 | 61:44.06 | 6:50.03 | 277806 | 308558
Track 1
Filename C:\Rips\Herbie Mann - Live At The Whiskey A Go Go , Mississippi Gambler\01 - Ooh Baby.wav
Pre-gap length 0:00:02.00
Peak level 100.0 %
Extraction speed 3.1 X
Track quality 100.0 %
Test CRC 9C5826B2
Copy CRC 9C5826B2
Accurately ripped (confidence 2) [7C9D2C8D] (AR v1)
Copy OK
Track 2
Filename C:\Rips\Herbie Mann - Live At The Whiskey A Go Go , Mississippi Gambler\02 - Philly Dog.wav
Pre-gap length 0:00:02.00
Peak level 100.0 %
Extraction speed 3.5 X
Track quality 99.9 %
Test CRC 1688CAC8
Copy CRC 1688CAC8
Accurately ripped (confidence 2) [04CA5090] (AR v1)
Copy OK
Track 3
Filename C:\Rips\Herbie Mann - Live At The Whiskey A Go Go , Mississippi Gambler\03 - Swing Low Sweet Chariot.wav
Pre-gap length 0:00:02.01
Peak level 100.0 %
Extraction speed 4.1 X
Track quality 100.0 %
Test CRC D75E32EB
Copy CRC D75E32EB
Accurately ripped (confidence 2) [9B5FABE6] (AR v1)
Copy OK
Track 4
Filename C:\Rips\Herbie Mann - Live At The Whiskey A Go Go , Mississippi Gambler\04 - Mississippi Gambler.wav
Pre-gap length 0:00:02.00
Peak level 100.0 %
Extraction speed 4.2 X
Track quality 100.0 %
Test CRC 39C8E0B4
Copy CRC 39C8E0B4
Accurately ripped (confidence 2) [C349CC05] (AR v1)
Copy OK
Track 5
Filename C:\Rips\Herbie Mann - Live At The Whiskey A Go Go , Mississippi Gambler\05 - Dippermouth.wav
Pre-gap length 0:00:02.01
Peak level 100.0 %
Extraction speed 4.5 X
Track quality 100.0 %
Test CRC 9364F8DB
Copy CRC 9364F8DB
Accurately ripped (confidence 2) [D7D912FC] (AR v1)
Copy OK
Track 6
Filename C:\Rips\Herbie Mann - Live At The Whiskey A Go Go , Mississippi Gambler\06 - Respect Yourself.wav
Pre-gap length 0:00:02.00
Peak level 100.0 %
Extraction speed 4.6 X
Track quality 100.0 %
Test CRC 528539AE
Copy CRC 528539AE
Accurately ripped (confidence 2) [D65F7CE0] (AR v1)
Copy OK
Track 7
Filename C:\Rips\Herbie Mann - Live At The Whiskey A Go Go , Mississippi Gambler\07 - I've Been Loving You Too Long.wav
Pre-gap length 0:00:02.00
Peak level 100.0 %
Extraction speed 4.8 X
Track quality 100.0 %
Test CRC A23B54CA
Copy CRC A23B54CA
Accurately ripped (confidence 2) [0E17D1A7] (AR v1)
Copy OK
Track 8
Filename C:\Rips\Herbie Mann - Live At The Whiskey A Go Go , Mississippi Gambler\08 - (I Can't Get No) Satisfaction.wav
Pre-gap length 0:00:02.01
Peak level 100.0 %
Extraction speed 4.3 X
Track quality 99.9 %
Test CRC 9C09A8FE
Copy CRC 9C09A8FE
Accurately ripped (confidence 2) [5CEEB77C] (AR v1)
Copy OK
All tracks accurately ripped
No errors occurred
End of status report
==== Log checksum 0A82184142396836E45CB16430DDB725956A2214ABB3B3A22657B88A6DDE75CF ====
 
Содержание индексной карты (.CUE)
REM GENRE Jazz
REM DATE 2001
REM DISCID 79101208
REM COMMENT "ExactAudioCopy v1.0b3"
PERFORMER "Herbie Mann"
TITLE "Live At The Whiskey A Go Go (1969) / Mississippi Gambler (1972)"
FILE "01. Ooh Baby.flac" WAVE
TRACK 01 AUDIO
TITLE "Ooh Baby"
PERFORMER "Herbie Mann"
INDEX 01 00:00:00
TRACK 02 AUDIO
TITLE "Philly Dog"
PERFORMER "Herbie Mann"
INDEX 00 15:05:56
FILE "02. Philly Dog.flac" WAVE
INDEX 01 00:00:00
TRACK 03 AUDIO
TITLE "Swing Low Sweet Chariot"
PERFORMER "Herbie Mann"
INDEX 00 14:04:45
FILE "03. Swing Low Sweet Chariot.flac" WAVE
INDEX 01 00:00:00
TRACK 04 AUDIO
TITLE "Mississippi Gambler"
PERFORMER "Herbie Mann"
INDEX 00 05:26:42
FILE "04. Mississippi Gambler.flac" WAVE
INDEX 01 00:00:00
TRACK 05 AUDIO
TITLE "Dippermouth"
PERFORMER "Herbie Mann"
INDEX 00 06:49:64
FILE "05. Dippermouth.flac" WAVE
INDEX 01 00:00:00
TRACK 06 AUDIO
TITLE "Respect Yourself"
PERFORMER "Herbie Mann"
INDEX 00 08:50:48
FILE "06. Respect Yourself.flac" WAVE
INDEX 01 00:00:00
TRACK 07 AUDIO
TITLE "I've Been Loving You Too Long"
PERFORMER "Herbie Mann"
INDEX 00 05:24:64
FILE "07. I've Been Loving You Too Long.flac" WAVE
INDEX 01 00:00:00
TRACK 08 AUDIO
TITLE "(I Can't Get No) Satisfaction"
PERFORMER "Herbie Mann"
INDEX 00 05:47:59
FILE "08. (I Can't Get No) Satisfaction.flac" WAVE
INDEX 01 00:00:00
 
CUETools log
[CUETools log; Date: 17.07.2013 19:49:55; Version: 2.0.9]
[CTDB TOCID: jOATyEU8vtODwTIhQlrDg6DCtTU-] found.
[ CTDBID ] Status
[4d7647ad] (1/1) Accurately ripped
[AccurateRip ID: 0018892b-009bdaf5-79101208] found.
Track [ CRC ] Status
01 [7c9d2c8d] (2/2) Accurately ripped
02 [04ca5090] (2/2) Accurately ripped
03 [9b5fabe6] (2/2) Accurately ripped
04 [c349cc05] (2/2) Accurately ripped
05 [d7d912fc] (2/2) Accurately ripped
06 [d65f7ce0] (2/2) Accurately ripped
07 [0e17d1a7] (2/2) Accurately ripped
08 [5ceeb77c] (2/2) Accurately ripped
Track Peak [ CRC32 ] [W/O NULL] [ LOG ]
-- 100,0 [EE337F9A] [DC26D924]
01 100,0 [9C5826B2] [75243313] CRC32
02 100,0 [1688CAC8] [49284FC7] CRC32
03 100,0 [D75E32EB] [7F10D8CF] CRC32
04 100,0 [39C8E0B4] [A09EFFD3] CRC32
05 100,0 [9364F8DB] [655E9EF9] CRC32
06 100,0 [528539AE] [6A38DCBC] CRC32
07 100,0 [A23B54CA] [E49ADB30] CRC32
08 100,0 [9C09A8FE] [AAAE28EC] CRC32
12:51
328
Нет комментариев. Ваш будет первым!