Поиск

(Post-Bop, African Jazz) Abdullah Ibrahim - South Africa - 1986, FLAC (image+.cue), lossless

Треклист:
Abdullah Ibrahim - South Africa
Жанр: Post-Bop, African Jazz
Год выпуска диска: 1986
Производитель диска: Enja
Аудио кодек: FLAC
Тип рипа: image+.cue
Битрейт аудио: lossless
Продолжительность: 52:11
Источник: найдено в сети.
Трэклист:
01. Thaba Bosigo (Mountain of the night) (4:22)
02. Siya Hamba Namhlanje (We are leaving today) (3:28)
03. Iza-Ne Zembe Gawuale (Bring the Axe) (4:11)
04. Black and brown Cherries (8:00)
05. Our loving family (6:13)
06. African Dawn - For Monk (8:00)
07. Zimbabwe (4:22)
08. Elsie's River (6:04)
09. Pancakes (0:46)
10. Capetown Carnival (4:04)
11. Thaba Bosigo (2:43)
Состав:
Essiet Essiet - Bass
Abdullah Ibrahim - Piano, Sax (Soprano), Vocals
Don Mumford - Drums
Carlos Ward - Flute, Sax (Alto)
Аудио сэмплы на allmusic.com
 
Отчёт ЕАС
Exact Audio Copy V0.99 prebeta 3 from 28. July 2007
EAC extraction logfile from 14. February 2009, 22:06
Abdullah Ibrahim / South Africa
Used drive : MATSHITADVD-ROM SR-8588 Adapter: 1 ID: 1
Read mode : Secure
Utilize accurate stream : Yes
Defeat audio cache : Yes
Make use of C2 pointers : No
Read offset correction : 103
Overread into Lead-In and Lead-Out : No
Fill up missing offset samples with silence : Yes
Delete leading and trailing silent blocks : No
Null samples used in CRC calculations : Yes
Used interface : Installed external ASPI interface
Used output format : Internal WAV Routines
Sample format : 44.100 Hz; 16 Bit; Stereo
TOC of the extracted CD
Track | Start | Length | Start sector | End sector
---------------------------------------------------------
1 | 0:00.00 | 4:21.50 | 0 | 19624
2 | 4:21.50 | 3:28.12 | 19625 | 35236
3 | 7:49.62 | 4:10.48 | 35237 | 54034
4 | 12:00.35 | 7:59.40 | 54035 | 89999
5 | 20:00.00 | 6:13.05 | 90000 | 117979
6 | 26:13.05 | 7:59.62 | 117980 | 153966
7 | 34:12.67 | 4:22.20 | 153967 | 173636
8 | 38:35.12 | 6:03.55 | 173637 | 200916
9 | 44:38.67 | 0:45.58 | 200917 | 204349
10 | 45:24.50 | 4:03.67 | 204350 | 222641
11 | 49:28.42 | 2:43.20 | 222642 | 234886
Range status and errors
Selected range
Filename J:\MMT\Abdullah Ibrahim - South Africa.wav
Peak level 100.0 %
Range quality 100.0 %
Test CRC F749EE75
Copy CRC F749EE75
Copy OK
No errors occurred
AccurateRip summary
Track 1 not present in database
Track 2 not present in database
Track 3 not present in database
Track 4 not present in database
Track 5 not present in database
Track 6 not present in database
Track 7 not present in database
Track 8 not present in database
Track 9 not present in database
Track 10 not present in database
Track 11 not present in database
None of the tracks are present in the AccurateRip database
End of status report


По всем вопросам пишите личное сообщение пользователю M0p94ok.
06:37
331
Нет комментариев. Ваш будет первым!