Поиск

(Hard Bop, Afro-Cuban Jazz) Tete Montoliu - Temas Brasileiros - 1973, FLAC (tracks+.cue), lossless

(Hard Bop, Afro-Cuban Jazz) Tete Montoliu - Temas Brasileiros - 1973, FLAC (tracks+.cue), lossless
Треклист:
Tete Montoliu - Temas Brasileiros (1973) [FLAC]
Жанр: Hard Bop, Afro-Cuban Jazz
Дата выпуска: 1973
Дата переиздания: 1993
Производитель диска, страна: Ensayo ENY-CD-3951
Страна исполнителя: Spain
Аудио кодек: FLAC
Тип рипа: (tracks + .cue)
Битрейт аудио: lossless
Включает: Full artwork
Продолжительность: 45:07
Источник: torrent
Риппер: bradpito
Трэклист:
01. Orfeo Negro - 06:36
02. La chica de Ipanema-Corcovado-Samba de uma nota - 09:30
03. O'Cangaceiro-Bahia-Brasil - 07:22
04. Canto de ossanha-Ola-So danco samba - 10:02
05. Desafinado-Meditacion-Tristeza - 11:35
Об исполнителе:
Монтолиу Тете - Tete Vincent Montoliu
28.03.1933, Барселона, Испания — 24.08.1997, Барселона
Пианист, один из выдающихся европейских виртуозов. По мнению российского джазового критика Александра Кассиса, "...Монтолиу взял все лучшее из американского черного экспрессивного джаза, насытив это пастелью каталонских напевов".
Слепой от рождения, Тете Монтолиу изучал классическую музыку в консерватории Барселоны. Заинтересовавшись джазом (в детстве мать покупала ему джазовые пластинки), в 13 лет присоединился к саксофонисту Дону Байесу, проживавшему некоторое время в Барселоне. В 50-е годы постоянно сотрудничал с американскими джазовыми гастролерами, в том числе с Лайонелом Хэмптоном, который назвал его лучшим пианистом Европы, Беном Уэбстером, Декстером Гордоном, Стефаном Граппелли. В 60-е годы выступал на европейских джазовых фестивалях, работал в Дании и Германии, затем 12 лет (1967–79) провел в США, играл в трио с Ричардом Дэвисом и Элвином Джонсом и сотрудничал с представителями фри-джаза. В 80–90-е годы выступал в Европе либо со знаменитыми партнерами, либо с сольными программами. (slovari.yandex.ru)
http://www.youtube.com/results?search_type=&search_query=Tete+Montoliu&aq=f
http://www.allaboutjazz.com/php/musician.php?id=9530
http://rateyourmusic.com/artist/tete_montoliu
http://allmusic.com/cg/amg.dll?p=amg&sql=11:gifyxqy5ldhe
http://www.discogs.com/artist/Tete+Montoliu
Об альбоме:
http://rateyourmusic.com/release/album/tete_montoliu/temas_brasilenos/
Состав:
Pedro Diaz, percusion
Miguel Angel Lizandra, bateria
Alberto Moraleda, contrabajo
Tete Montoliu, piano
Издания:
October, 01, 1996 CD Fresh Sound 3951
 
Несколько слов на английском
The outstanding Catalan jazz pianist, whose real name was Vicenc Montoliu i Massana was born blind in the Eixample district of Barcelona, and died in the same city. He was the only son of Vicenc Montoliu (a professional musician) and Angela Massana, a jazz enthusiast, who encouraged her son to study piano and in 1944 engaged his piano teacher, Petri Palou. Before that, Montoliu had his first piano lessons with Enric Mas at the private school for blind children that he attended from 1939-1944 where he learned to read music in Braille.
From 1946 till 1953 he studied music at the Conservatori Superior de Musica de Barcelona, where he met his first jam session fellows. Don Byas arrived in Barcelona in 1947 and introduced Tete to the Bebop style.
On March 13, 1956 he met the vibraphonist Lionel Hampton in a jam session in Barcelona. Montoliu toured with Hampton through Spain and France, had his first session as a leader in 1958 , and played with the touring Roland Kirk in 1963. Through the years, he also worked with such visiting Americans as Kenny Dorham, Dexter Gordon, Ben Webster, Lucky Thompson, and even Anthony Braxton.
On this LP, recorded in November 1973, of Brasilian themes he is joined by Alberto Moraleda on bass, Miguel Angel Lizandra on drums and Pedro Diaz on percussion.
 
CD scan
 
EAC log
EAC extraction logfile from 1. July 2007, 22:02 for CD
Tete Montoliu / Temas Brasileiros
Used drive : DVDRW 16X16X Adapter: 0 ID: 0
Read mode : Secure with NO C2, accurate stream, disable cache
Read offset correction : 6
Overread into Lead-In and Lead-Out : No
Used output format : C:\Archivos de programa\FLAC\flac.exe (User Defined Encoder)
128 kBit/s
Additional command line options : -V -8 -T "artist=%a" -T "title=%t" -T "album=%g" -T "date=%y" -T "tracknumber=%n" -T "genre=%m" %s
Other options :
Fill up missing offset samples with silence : Yes
Delete leading and trailing silent blocks : No
Installed external ASPI interface
Track 1
Filename C:\audio-rips\01 - Orfeo Negro.wav
Pre-gap length 0:00:02.44
Peak level 100.0 %
Track quality 100.0 %
Test CRC 0A562D5C
Copy CRC 0A562D5C
Copy OK
Track 2
Filename C:\audio-rips\02 - La chica de Ipanema-Corcovado-Samba de uma nota.wav
Pre-gap length 0:00:01.00
Peak level 87.8 %
Track quality 100.0 %
Test CRC 12829A15
Copy CRC 12829A15
Copy OK
Track 3
Filename C:\audio-rips\03 - O'Cangaceiro-Bahia-Brasil.wav
Pre-gap length 0:00:01.00
Peak level 66.3 %
Track quality 99.9 %
Test CRC 5AEE6DB7
Copy CRC 5AEE6DB7
Copy OK
Track 4
Filename C:\audio-rips\04 - Canto de ossanha-Ola-So danco samba.wav
Pre-gap length 0:00:01.00
Peak level 84.3 %
Track quality 100.0 %
Test CRC 77240DCC
Copy CRC 77240DCC
Copy OK
Track 5
Filename C:\audio-rips\05 - Desafinado-Meditacion-Tristeza.wav
Pre-gap length 0:00:01.00
Peak level 79.4 %
Track quality 100.0 %
Test CRC 9949A98E
Copy CRC 9949A98E
Copy OK
No errors occured
End of status report
 
auCDtect log
2473120483 69913244 01 - Orfeo Negro.wav
2172033503 100599788 02 - La chica de Ipanema-Corcovado-Samba de uma nota.wav
4077918112 78133484 03 - O'Cangaceiro-Bahia-Brasil.wav
3724177323 106286924 04 - Canto de ossanha-Ola-So danco samba.wav
1709879729 122609804 05 - Desafinado-Meditacion-Tristeza.wav
auCDtect: CD records authenticity detector, version 0.8.2
Copyright (c) 2004 Oleg Berngardt. All rights reserved.
Copyright (c) 2004 Alexander Djourik. All rights reserved.
------------------------------------------------------------
Processing file: [01 - Orfeo Negro.wav]
------------------------------------------------------------
This track looks like CDDA with probability 100%
------------------------------------------------------------
Processing file: [02 - La chica de Ipanema-Corcovado-Samba de uma nota.wav]
------------------------------------------------------------
This track looks like CDDA with probability 99%
------------------------------------------------------------
Processing file: [03 - O'Cangaceiro-Bahia-Brasil.wav]
------------------------------------------------------------
This track looks like CDDA with probability 100%
------------------------------------------------------------
Processing file: [04 - Canto de ossanha-Ola-So danco samba.wav]
------------------------------------------------------------
This track looks like CDDA with probability 100%
------------------------------------------------------------
Processing file: [05 - Desafinado-Meditacion-Tristeza.wav]
------------------------------------------------------------
This track looks like CDDA with probability 100%
------------------------------------------------------------
Final Conclusion:
------------------------------------------------------------
These tracks looks like CDDA with probability 100%
Я не сидирую все свои раздачи подолгу, только новые (до 3х первых сидов)
Предлагаю скачавшим максимально долго оставаться на раздаче - весь рейтинг будет ваш
Если нет сидов или раздача находится в архиве, пришлите письмо, и я вернусь
Заботьтесь о своем рейтинге - приветствуется конвертация моих раздач в мп3 и выкладывание в соотвтствующем разделе
По всем вопросам пишите личное сообщение пользователю M0p94ok.
06:37
373
Нет комментариев. Ваш будет первым!