Поиск

(Latin Jazz,Afro-Cuban Jazz) Poncho Sanchez - Latin Spirits - 2001, APE (image+.cue), lossless

(Latin Jazz,Afro-Cuban Jazz) Poncho Sanchez - Latin Spirits - 2001, APE (image+.cue), lossless
Треклист:
Poncho Sanchez - Latin Spirits
Жанр: Latin Jazz,Afro-Cuban Jazz
Год выпуска диска: 2001
Производитель диска: Concord Records
Аудио кодек: APE
Тип рипа: image+.cue
Битрейт аудио: lossless
Продолжительность: 62'31
Трэклист:
1 Sambia 6:16
2 Next Exit 4:31
3 Latin Spirits 4:54
4 Quieres Volver 6:18
5 Going Back to New Orleans 4:42
6 On Time 4:27
7 Ju Ju 7:08
8 Batiri Cha Cha 6:36
9 The Things We Did Last Summer 6:30
10 Tito in the City 4:29
11 Early in the Morning 6:35
Доп. информация: Performers:
Poncho Sanchez Percussion, Arranger, Conga, Vocals, Producer, Mixing
Ramon Banda Timbales
Tony Banda Bass, Vocals (bckgr)
Chick Corea Piano
James Gadson Drums
Tom Gargano Bass
Ledisi Vocals
Bruce Malament Piano
Scott Martin Sax (Alto), Sax (Baritone), Sax (Tenor)
Ricardo Tiki Pasillas Timbales
Lon Price Sax (Alto), Sax (Baritone), Sax (Tenor)
José Papo Rodríguez Percussion, Bongos, Vocals (bckgr)
David Spalding Harmonica, Vocals
David Torres Piano, Arranger, Organ (Hammond)
Francisco Torres Trombone, Arranger, Vocals (bckgr)
 
скрытый текст
Exact Audio Copy V0.99 prebeta 4 from 23. January 2008
EAC extraction logfile from 9. June 2009, 9:54
Latin Spirits / Poncho Sanchez
Used drive : HL-DT-STDVDRAM GH22NS40 Adapter: 2 ID: 0
Read mode : Secure
Utilize accurate stream : Yes
Defeat audio cache : Yes
Make use of C2 pointers : No
Read offset correction : 667
Overread into Lead-In and Lead-Out : No
Fill up missing offset samples with silence : Yes
Delete leading and trailing silent blocks : No
Null samples used in CRC calculations : Yes
Used interface : Installed external ASPI interface
Used output format : Internal WAV Routines
Sample format : 44.100 Hz; 16 Bit; Stereo
TOC of the extracted CD
Track | Start | Length | Start sector | End sector
---------------------------------------------------------
1 | 0:00.00 | 6:16.42 | 0 | 28241
2 | 6:16.42 | 4:31.18 | 28242 | 48584
3 | 10:47.60 | 4:54.47 | 48585 | 70681
4 | 15:42.32 | 6:18.35 | 70682 | 99066
5 | 22:00.67 | 4:42.63 | 99067 | 120279
6 | 26:43.55 | 4:27.12 | 120280 | 140316
7 | 31:10.67 | 7:08.08 | 140317 | 172424
8 | 38:19.00 | 6:36.72 | 172425 | 202196
9 | 44:55.72 | 6:30.23 | 202197 | 231469
10 | 51:26.20 | 4:29.67 | 231470 | 251711
11 | 55:56.12 | 6:35.25 | 251712 | 281361
Range status and errors
Selected range
Filename D:\My Music\Latin Spirits - Poncho Sanchez.wav
Peak level 99.9 %
Range quality 100.0 %
Copy CRC 9FF80527
Copy OK
No errors occurred
End of status report
По всем вопросам пишите личное сообщение пользователю M0p94ok.
06:38
204
Нет комментариев. Ваш будет первым!