Поиск

(Vocal Jazz, Brazilian Jazz) Rosa Passos - Romance - 2008, APE (image+.cue), lossless

(Vocal Jazz, Brazilian Jazz) Rosa Passos - Romance - 2008, APE (image+.cue), lossless
Треклист:
Rosa Passos - Romance Жанр: Vocal Jazz, Brazilian Jazz
Год выпуска диска: 2008
Производитель диска: USA
Аудио кодек: APE
Тип рипа: image+.cue
Битрейт аудио: lossless
Продолжительность: 63:04
Трэклист:
01. Doce Presenзa [0:03:56.69]
02. Nem Eu [0:05:59.21]
03. Eu Sei Que Vou Te Amar [0:04:51.29]
04. Alibi [0:06:09.38]
05. Preciso Apender A Ser Sу [0:05:22.39]
06. Atrбs da Porta [0:05:26.53]
07. Tatuagem [0:07:33.16]
08. Por Causa de Vocк [0:04:40.46]
09. Altos E Baixos [0:05:07.73]
10. Cadк Vocк [0:04:56.33]
11. Neste Mesmo Lugar [0:04:03.13]
12. Nossos Momentos [0:05:02.36]
Musicians: Rosa Passos (vocals), Fabio Torres (piano), Paulo Paulelli (acoustic bass), Celso de Almeido (drums), Daniel D’Alcantara (trumpet/flugelhorn), Nahor Gomes (flugelhorn/trumpet), Lulo Galvao (guitar), Vinicius Dorin (tenor saxophone)
Релиз от JamesBrown.
 
EAC extraction logfile
Exact Audio Copy V0.99 prebeta 4 from 23. January 2008
EAC extraction logfile from 6. June 2009, 15:00
Rosa Passos / Romance
Used drive : PLEXTOR DVDR PX-750A Adapter: 2 ID: 1
Read mode : Secure
Utilize accurate stream : Yes
Defeat audio cache : Yes
Make use of C2 pointers : No
Read offset correction : 102
Overread into Lead-In and Lead-Out : No
Fill up missing offset samples with silence : Yes
Delete leading and trailing silent blocks : No
Null samples used in CRC calculations : Yes
Used interface : Native Win32 interface for Win NT & 2000
Used output format : Monkey's Audio Lossless Encoder v3.99 DLL
Sample format : Normal Lossless Compression
TOC of the extracted CD
Track | Start | Length | Start sector | End sector
---------------------------------------------------------
1 | 0:00.00 | 3:56.69 | 0 | 17768
2 | 3:56.69 | 5:59.21 | 17769 | 44714
3 | 9:56.15 | 4:51.29 | 44715 | 66568
4 | 14:47.44 | 6:09.38 | 66569 | 94281
5 | 20:57.07 | 5:22.39 | 94282 | 118470
6 | 26:19.46 | 5:26.53 | 118471 | 142973
7 | 31:46.24 | 7:33.16 | 142974 | 176964
8 | 39:19.40 | 4:40.46 | 176965 | 198010
9 | 44:00.11 | 5:07.73 | 198011 | 221108
10 | 49:08.09 | 4:56.33 | 221109 | 243341
11 | 54:04.42 | 4:03.13 | 243342 | 261579
12 | 58:07.55 | 5:02.36 | 261580 | 284265
Range status and errors
Selected range
Filename C:Rosa Passos - Romance.ape
Peak level 99.7 %
Range quality 100.0 %
Copy CRC A69009F0
Copy OK
No errors occurred
End of status report
Последний на сегодняшний день альбом Розы и второй на лэйбле Telarc. Как всегда, спокойно, красиво и душевно.
Приятных впечатлений!
07:39
367
Нет комментариев. Ваш будет первым!