Поиск

(Ethnic Fusion / Modern Creative / Winter & Winter) Stian Carstensen - Backwards Into The Backwoods - 2004, FLAC (image+.cue), lossless

(Ethnic Fusion / Modern Creative / Winter & Winter) Stian Carstensen - Backwards Into The Backwoods - 2004, FLAC (image+.cue), lossless
Треклист:
Stian Carstensen - Backwards Into The Backwoods
Жанр: Ethnic Fusion / Modern Creative / Winter & Winter
Год выпуска диска: 2004
Производитель диска: Germany (Winter & Winter 910 087-2)
Аудио кодек: FLAC
Тип рипа: image+.cue
Битрейт аудио: lossless
Продолжительность: 55:06
Stian Carstensen midi accordion, prepared banjo, electric and acoustic guitars, violin, kaval
Arve Henriksen trumpet, vocals, spinet
Ernst Reijseger cello
Jarle Vespestad drums
Haavard Wiik piano, spinet
1. Dimitri's Polynesian Vacation
2. Death Of A Neutered Choir Boy
3. See Fair Lis (Is Her Veneer Real?)
4. Backwards Into The Backwoods
5. Zat Was Zen... Zis Is Now
6. Solo Improvisation, Nº. 1
7. Solo Improvisation, Nº. 2
8. Solo Improvisation, Nº. 3
9. Solo Improvisation, Nº. 4
10. Solo Improvisation, Nº. 5
11. Gyorgy's Appalachian Vacation
12. What's That Horsehead Doing On My Pillow?
13. (Look Granpa!) Buckwheat's On Bogweed
14. One Legged Cow's New Age Square Dance
15. Vlad Tepes' Two-Step (Swing That Bat...)
16. Funeral March For A Neutered Choir Boy
 
EAC Report
Exact Audio Copy V0.99 prebeta 4 from 23. January 2008
EAC extraction logfile from 21. March 2009, 23:37
Stian Carstensen / Backwards Into The Backwoods
Used drive : TSSTcorpCD/DVDW SH-S182M Adapter: 2 ID: 1
Read mode : Secure
Utilize accurate stream : Yes
Defeat audio cache : Yes
Make use of C2 pointers : No
Read offset correction : 6
Overread into Lead-In and Lead-Out : No
Fill up missing offset samples with silence : Yes
Delete leading and trailing silent blocks : No
Null samples used in CRC calculations : Yes
Used interface : Installed external ASPI interface
Used output format : User Defined Encoder
Selected bitrate : 1024 kBit/s
Quality : High
Add ID3 tag : No
Command line compressor : C:\Program Files\Exact Audio Copy\FLAC\FLAC.EXE
Additional command line options : -8 -V -T "ARTIST=%a" -T "TITLE=%t" -T "ALBUM=%g" -T "DATE=%y" -T "TRACKNUMBER=%n" -T "GENRE=%m" -T "COMMENT=%e" %s -o %d
TOC of the extracted CD
Track | Start | Length | Start sector | End sector
---------------------------------------------------------
1 | 0:00.00 | 4:59.43 | 0 | 22467
2 | 4:59.43 | 4:04.68 | 22468 | 40835
3 | 9:04.36 | 4:05.06 | 40836 | 59216
4 | 13:09.42 | 1:14.32 | 59217 | 64798
5 | 14:23.74 | 3:26.39 | 64799 | 80287
6 | 17:50.38 | 1:44.66 | 80288 | 88153
7 | 19:35.29 | 3:16.10 | 88154 | 102863
8 | 22:51.39 | 2:15.62 | 102864 | 113050
9 | 25:07.26 | 2:23.42 | 113051 | 123817
10 | 27:30.68 | 1:10.46 | 123818 | 129113
11 | 28:41.39 | 4:38.23 | 129114 | 149986
12 | 33:19.62 | 1:56.66 | 149987 | 158752
13 | 35:16.53 | 4:38.58 | 158753 | 179660
14 | 39:55.36 | 4:58.50 | 179661 | 202060
15 | 44:54.11 | 4:13.73 | 202061 | 221108
16 | 49:08.09 | 5:57.30 | 221109 | 247913
Range status and errors
Selected range
Filename C:\Documents and Settings\Igor\My Documents\My Music\eac\Stian Carstensen - Backwards Into The Backwoods.wav
Peak level 98.8 %
Range quality 100.0 %
Test CRC C961A26E
Copy CRC C961A26E
Copy OK
No errors occurred
AccurateRip summary
Track 1 accurately ripped (confidence 2) [F16BD316]
Track 2 accurately ripped (confidence 2) [92C46CCB]
Track 3 accurately ripped (confidence 2) [30D3E9DE]
Track 4 accurately ripped (confidence 2) [EB9EAF54]
Track 5 accurately ripped (confidence 2) [E02DE710]
Track 6 accurately ripped (confidence 2) [C5991B0D]
Track 7 accurately ripped (confidence 2) [86407762]
Track 8 accurately ripped (confidence 2) [4DFD6BA7]
Track 9 accurately ripped (confidence 2) [15374EF2]
Track 10 accurately ripped (confidence 2) [7004050E]
Track 11 accurately ripped (confidence 2) [2B16C109]
Track 12 accurately ripped (confidence 2) [62547724]
Track 13 accurately ripped (confidence 2) [C7D052BF]
Track 14 accurately ripped (confidence 2) [C0B10538]
Track 15 accurately ripped (confidence 2) [0EE44C85]
Track 16 accurately ripped (confidence 2) [B1CB304B]
All tracks accurately ripped
End of status report
Download available for power users only.
06:36
197
Нет комментариев. Ваш будет первым!