Поиск

(Afro-Cuban Jazz, Bop, Soul-Jazz) Herbie Mann - The Herbie Mann-Sam Most Quintet - 1955, FLAC (tracks+.cue), lossless

Треклист:
Herbie Mann - The Herbie Mann-Sam Most Quintet (1955)
Жанр: Afro-Cuban Jazz, Bop, Soul-Jazz
Дата записи: 1955
Дата переиздания: 1999
Производитель диска, страна: Avenue Jazz R5 75731
Аудио кодек: FLAC
Тип рипа: (tracks + .cue)
Битрейт аудио: lossless
Включает: Full artwork
Продолжительность: 40:00
Источник: torrent
Трэклист:
1. Fascinating Rhythm (Gershwin, Gershwin) - 3:49
2. Why Do I Love You? (Hammerstein, Kern) - 3:49
3. It's Only Sunshine (Puma) - 2:42
4. Love Letters (Heyman, Young) - 2:11
5. Let's Get Away from It All (Adair, Dennis) - 3:22
6. Flying Home (Goodman, Hampton, Robin) - 3:21
7. I'll Remember April (DePaul, Johnston, Raye) - 4:59
8. Empathy (Most) - 3:19
9. It Might as Well Be Spring (Hammerstein, Rodgers) - 3:13
10. Just One of Those Things (Porter) - 3:56
11. Seven Comes Eleven (Goodman) - 4:54
Об альбоме:
http://www.allmusic.com/cg/amg.dll?p=amg&sql=10:fifoxq9kldse
Состав:
Jim Gannon Bass
Guitar Joe Guitar
Lee Kleinman Drums
Herbie Mann Fiddle, Flute
Sam Most Fiddle, Flute, Performer
Joe Puma Guitar
Издания:
1999 CD Rhino 75731
2007 CD JVC Victor 61480
 
by Scott Yanow
This 1999 CD reissues an early Herbie Mann set that matches him with his fellow flutist, Sam Most. Originally, this date was known as The Mann With the Most. Recorded back during Mann's bebop period, the set teams the two flutists with guitarist Joe Puma, bassist Jimmy Gannon and drummer Lee Kleinman. The quintet performs nine standards plus an original apiece from Most and Puma. Highlights include "Fascinating Rhythm," "Let's Get Away from It All" and "Seven Come Eleven." Most was actually the better known of the two flutists at the time but, while he ended up in the Los Angeles studios, Mann's constant musical curiosity would result in him gaining worldwide fame. Their enjoyable music, brought back by Avenue Jazz, finds the flutists battling it out to a draw.
 
CD scan
 
Back scan
 
EAC log
EAC extraction logfile from 1. May 2008, 13:14 for CD
Herbie Mann and Sam Most / Herbie Mann-Sam Most Quintet
Used drive : HL-DT-STCDRW/DVD GCC4482 Adapter: 1 ID: 0
Read mode : Secure with NO C2, accurate stream, disable cache
Read offset correction : 6
Overread into Lead-In and Lead-Out : No
Used output format : C:\Eac\Codecs\flac.exe (User Defined Encoder)
320 kBit/s
Additional command line options : -8 -V -T "artist=%a" -T "title=%t" -T "album=%g" -T "date=%y" -T "tracknumber=%n" -T "genre=%m" -T "comment=EAC Flac 1.1.2 -8" %s
Other options :
Fill up missing offset samples with silence : Yes
Delete leading and trailing silent blocks : No
Installed external ASPI interface
Track 1
Filename C:\Documents and Settings\mann\01 - Fascinating Rhythm.wav
Pre-gap length 0:00:02.42
Peak level 99.8 %
Track quality 100.0 %
Test CRC 6156F476
Copy CRC 6156F476
Copy OK
Track 2
Filename C:\Documents and Settings\mann\02 - Why Do I Love You .wav
Pre-gap length 0:00:01.62
Peak level 99.8 %
Track quality 100.0 %
Test CRC A6A9BD3D
Copy CRC A6A9BD3D
Copy OK
Track 3
Filename C:\Documents and Settings\mann\03 - It's Only Sunshine.wav
Pre-gap length 0:00:01.64
Peak level 93.8 %
Track quality 100.0 %
Test CRC 498AC732
Copy CRC 498AC732
Copy OK
Track 4
Filename C:\Documents and Settings\mann\04 - Love Letters.wav
Pre-gap length 0:00:01.62
Peak level 74.6 %
Track quality 100.0 %
Test CRC 9A59881D
Copy CRC 9A59881D
Copy OK
Track 5
Filename C:\Documents and Settings\mann\05 - Let's Get Away From It All.wav
Pre-gap length 0:00:01.64
Peak level 99.8 %
Track quality 100.0 %
Test CRC C4CD58A7
Copy CRC C4CD58A7
Copy OK
Track 6
Filename C:\Documents and Settings\mann\06 - Flying Home.wav
Pre-gap length 0:00:01.62
Peak level 99.8 %
Track quality 100.0 %
Test CRC F518EFBF
Copy CRC F518EFBF
Copy OK
Track 7
Filename C:\Documents and Settings\mann\07 - I'll Remember April.wav
Pre-gap length 0:00:01.64
Peak level 99.8 %
Track quality 100.0 %
Test CRC 9D54E161
Copy CRC 9D54E161
Copy OK
Track 8
Filename C:\Documents and Settings\mann\08 - Empathy.wav
Pre-gap length 0:00:01.62
Peak level 99.9 %
Track quality 100.0 %
Test CRC E2F8FEE4
Copy CRC E2F8FEE4
Copy OK
Track 9
Filename C:\Documents and Settings\mann\09 - It Might As Well Be Spring.wav
Pre-gap length 0:00:01.64
Peak level 99.8 %
Track quality 100.0 %
Test CRC CB5EB6B0
Copy CRC CB5EB6B0
Copy OK
Track 10
Filename C:\Documents and Settings\mann\10 - Just One Of Those Things.wav
Pre-gap length 0:00:01.64
Peak level 99.8 %
Track quality 100.0 %
Test CRC 877B7524
Copy CRC 877B7524
Copy OK
Track 11
Filename C:\Documents and Settings\mann\11 - Seven Comes Eleven.wav
Pre-gap length 0:00:01.64
Peak level 99.9 %
Track quality 100.0 %
Test CRC 31E566DB
Copy CRC 31E566DB
Copy OK
No errors occured
End of status report
 
auCDtect log
1198378779 40854284 01 - Fascinating Rhythm.wav
2907531653 40896620 02 - Why Do I Love You .wav
2489122923 28922588 03 - It's Only Sunshine.wav
575225331 23562380 04 - Love Letters.wav
1784181176 36025628 05 - Let's Get Away From It All.wav
986565463 35886860 06 - Flying Home.wav
738762051 53230508 07 - I'll Remember April.wav
1970150976 35592860 08 - Empathy.wav
6453921 34421564 09 - It Might As Well Be Spring.wav
1642530335 42042044 10 - Just One Of Those Things.wav
2269459133 52038044 11 - Seven Comes Eleven.wav
auCDtect: CD records authenticity detector, version 0.8.2
Copyright (c) 2004 Oleg Berngardt. All rights reserved.
Copyright (c) 2004 Alexander Djourik. All rights reserved.
------------------------------------------------------------
Processing file: [01 - Fascinating Rhythm.wav]
------------------------------------------------------------
This track looks like CDDA with probability 100%
------------------------------------------------------------
Processing file: [02 - Why Do I Love You .wav]
------------------------------------------------------------
This track looks like CDDA with probability 100%
------------------------------------------------------------
Processing file: [03 - It's Only Sunshine.wav]
------------------------------------------------------------
This track looks like CDDA with probability 100%
------------------------------------------------------------
Processing file: [04 - Love Letters.wav]
------------------------------------------------------------
This track looks like CDDA with probability 100%
------------------------------------------------------------
Processing file: [05 - Let's Get Away From It All.wav]
------------------------------------------------------------
This track looks like CDDA with probability 100%
------------------------------------------------------------
Processing file: [06 - Flying Home.wav]
------------------------------------------------------------
This track looks like CDDA with probability 100%
------------------------------------------------------------
Processing file: [07 - I'll Remember April.wav]
------------------------------------------------------------
This track looks like CDDA with probability 100%
------------------------------------------------------------
Processing file: [08 - Empathy.wav]
------------------------------------------------------------
This track looks like CDDA with probability 100%
------------------------------------------------------------
Processing file: [09 - It Might As Well Be Spring.wav]
------------------------------------------------------------
This track looks like CDDA with probability 100%
------------------------------------------------------------
Processing file: [10 - Just One Of Those Things.wav]
------------------------------------------------------------
This track looks like CDDA with probability 99%
------------------------------------------------------------
Processing file: [11 - Seven Comes Eleven.wav]
------------------------------------------------------------
This track looks like CDDA with probability 100%
------------------------------------------------------------
Final Conclusion:
------------------------------------------------------------
These tracks looks like CDDA with probability 100%
Я не сидирую все свои раздачи подолгу, только новые (до 3х первых сидов)
Предлагаю скачавшим максимально долго оставаться на раздаче - весь рейтинг будет ваш
Если нет сидов или раздача находится в архиве, пришлите письмо, и я вернусь
Заботьтесь о своем рейтинге - приветствуется конвертация моих раздач в мп3 и выкладывание в соотвтствующем разделе
По всем вопросам пишите личное сообщение пользователю M0p94ok.
06:35
219
Нет комментариев. Ваш будет первым!