Поиск

(Pop/Swing/Smooth Jazz) Oleta Adams - Circle Of One - 1990, FLAC (image+.cue), lossless

Треклист:
Oleta Adams - Circle Of One
Жанр: Pop/Swing/Smooth Jazz
Год выпуска диска: 1990
Производитель диска: France Phonogram 848 740-2
Аудио кодек: FLAC
Тип рипа: image+.cue
Битрейт аудио: lossless
Продолжительность: 47:06
Наличие сканов в содержимом раздачи: да
Источник (релизер):
С РАЗДАЧИ УШЕЛ!!!
Первый сольный альбом Oleta Adams - Circle Of One, был записан при участии группы Tears For Fears,
(именно ее голос звучит в композициях Woman in Chains и Badman's Song в альбоме 1989 года Tears For Fears - The Seeds Of Love)
Roland Orzabal выступил и в качестве продюссера данного альбома,
впервые увидел свет 14 мая 1990 года....и не произвел никакого впечатления ни на критиков, ни на слушателей.
Было выпущено 2 сингла - Rhythm Of Life и Circle Of One, которые так же не имели успеха, и, лишь в начале 1991 года,
с выходом третьего сингла - кавер-версии хита Brenda Russell - Get Here,
публика заметила альбом, который тут же был переиздан с двумя дополнительными треками и занял верхнюю строчку в UK Top 10
Circle Of One:
01. Rhythm Of Life [0:04:23.38]
02. Get Here [0:04:36.65]
03. Circle Of One [0:03:54.72]
04. You've Got To Give Me Room [0:05:17.08]
05. I've Got To Sing My Song [0:04:01.17]
06. I've Got A Right [0:04:00.03]
07. Will We Ever Learn [0:05:14.42]
08. Everything Must Change [0:06:53.43]
09. Don't Look Too Closely [0:04:27.50]
10. Circle Of One (Remix) [0:04:16.12]
Produced by Roland Orzabal and Dave Bascombe, except track 1,
Produced by Roland Orzabal, Dave Bascombe and William Orbit.
 
***EAC***
Exact Audio Copy V0.99 prebeta 5 from 4. May 2009
EAC extraction logfile from 9. February 2010, 20:59
Oleta Adams / Circle Of One
Used drive : ASUS DRW-1608P Adapter: 2 ID: 1
Read mode : Secure
Utilize accurate stream : Yes
Defeat audio cache : Yes
Make use of C2 pointers : No
Read offset correction : 48
Overread into Lead-In and Lead-Out : No
Fill up missing offset samples with silence : Yes
Delete leading and trailing silent blocks : No
Null samples used in CRC calculations : Yes
Used interface : Installed external ASPI interface
Used output format : User Defined Encoder
Selected bitrate : 1024 kBit/s
Quality : High
Add ID3 tag : No
Command line compressor : C:\Program Files (x86)\Exact Audio Copy\Flac\flac.exe
Additional command line options : -5 -V -T "ARTIST=%a" -T "TITLE=%t" -T "ALBUM=%g" -T "DATE=%y" -T "TRACKNUMBER=%n" -T "GENRE=%m" -T "COMMENT=EAC FLAC -5" %s
TOC of the extracted CD
Track | Start | Length | Start sector | End sector
---------------------------------------------------------
1 | 0:00.32 | 4:23.38 | 32 | 19794
2 | 4:23.70 | 4:36.65 | 19795 | 40559
3 | 9:00.60 | 3:54.72 | 40560 | 58181
4 | 12:55.57 | 5:17.08 | 58182 | 81964
5 | 18:12.65 | 4:01.17 | 81965 | 100056
6 | 22:14.07 | 4:00.03 | 100057 | 118059
7 | 26:14.10 | 5:14.42 | 118060 | 141651
8 | 31:28.52 | 6:53.43 | 141652 | 172669
9 | 38:22.20 | 4:27.50 | 172670 | 192744
10 | 42:49.70 | 4:16.12 | 192745 | 211956
Range status and errors
Selected range
Filename F:\Oleta Adams - Circle Of One - 1990\Oleta Adams - Circle Of One.wav
Peak level 100.0 %
Range quality 100.0 %
Test CRC 9EC747DA
Copy CRC 9EC747DA
Copy OK
No errors occurred
AccurateRip summary
Track 1 accurately ripped (confidence 46) [E5CB9959]
Track 2 accurately ripped (confidence 48) [1AB7CFCA]
Track 3 accurately ripped (confidence 48) [201C0133]
Track 4 accurately ripped (confidence 46) [397F45EF]
Track 5 accurately ripped (confidence 47) [5AC06AE9]
Track 6 accurately ripped (confidence 47) [F9BE85B2]
Track 7 accurately ripped (confidence 47) [3ACCE83C]
Track 8 accurately ripped (confidence 45) [48AB0E44]
Track 9 accurately ripped (confidence 46) [AC6EC5CA]
Track 10 accurately ripped (confidence 46) [B029ED30]
All tracks accurately ripped
End of status report
Приватный:
Нет (DHT включён)
Размер:
289.11 Мб (303,158,240 байт) » файлов: 8
Участники:
0 раздают, 0 качают (0 участников всего)
Внешние участники:
5 раздают, 1 качают (6 участников всего) [ Обновить ]
Нет сидеров - пишите личное сообщение M0p94ok. Не нравятся торренты? Участники группы Pro-jazz Club могут заказать прямую ссылку на скачивание из облака.
No seeders - write a personal message to M0p94ok. Don't like torrents? Members of Pro-jazz Club group can order a direct download link from the cloud.
02:26
75
Нет комментариев. Ваш будет первым!