Поиск

(Funk/Hip Hop/Soul) Galactic - Ya-Ka-May - 2010, FLAC (tracks+.cue), lossless

(Funk/Hip Hop/Soul) Galactic - Ya-Ka-May - 2010, FLAC (tracks+.cue), lossless
Треклист:
Galactic - Ya-Ka-May
Жанр: Funk/Hip Hop/Soul
Год выпуска диска: 2010
Производитель диска: United States / США (Anti)
Аудио кодек: FLAC
Тип рипа: tracks+.cue
Битрейт аудио: lossless
Продолжительность: 00:41:26
Доп. информация: Бестселлер раздела «Funk» на сайте Amazon.
«Galactic» – funk и jazz группа из Нового Орлеана, штат Луизиана.
В новом альбоме группа попытается передать фундаментальную истину многообразного города Новый Орлеан. Разрозненные стили джаза, духового оркестра и фанка неразрывно связаны с bounce/hip hop.
Информация о релизе.
Дата выхода диска: 9 февраля 2010 г.
Рип с CD раздаётся здесь:
http://rutracker.org/forum/viewtopic.php?t=2736558
Трэклист:
01. Friends of Science (1:17)
02. Boe Money (feat. The Rebirth Brass Band) (3:16)
03. Double It (feat. Big Freedia) (3:24)
04. Heart of Steel (feat. Irma Thomas) (3:28)
05. Wild Man (feat. Big Chief Bo Dollis) (2:08)
06. Bacchus (feat. Aleen Toussaint) (2:54)
07. Katey vs. Nobby (feat. Katey Red & Sissy Nobby) (3:01)
08. Cineramascope (feat. Trombone Shorty & Corey Henry) (3:15)
09. Dark Water (feat. John Boutte) (3:11)
10. Do It Again (feat. Cheeky Blakk) (2:31)
11. Liquor Pang (feat. Josh Cohen & Ryan Scully from the Morning 40 Federation) (3:23)
12. Krewe d'Etat (0:34)
13. You Don't Know (feat. Glen David Andrews & The Rebirth Brass Band) (4:04)
14. Speaks His Mind (feat. Walter 'Wolfman' Washington) (3:51)
15. Do It Again (Again) (feat. Cheeky Blakk) (1:08)
 
Отчёт EAC:
Exact Audio Copy V0.99 prebeta 5 from 4. May 2009
EAC extraction logfile from 9. February 2010, 10:23
Galactic / Ya-Ka-May
Used drive : Optiarc DVD RW AD-7203A Adapter: 1 ID: 0
Read mode : Secure
Utilize accurate stream : Yes
Defeat audio cache : Yes
Make use of C2 pointers : No
Read offset correction : 48
Overread into Lead-In and Lead-Out : No
Fill up missing offset samples with silence : Yes
Delete leading and trailing silent blocks : No
Null samples used in CRC calculations : Yes
Used interface : Native Win32 interface for Win NT & 2000
Gap handling : Appended to previous track
Used output format : User Defined Encoder
Selected bitrate : 1024 kBit/s
Quality : High
Add ID3 tag : No
Command line compressor : C:\Program Files (x86)\FLAC\flac.exe
Additional command line options : -8 -V -T "ARTIST=%a" -T "TITLE=%t" -T "ALBUM=%g" -T "DATE=%y" -T "TRACKNUMBER=%n" -T "GENRE=%m" %s -o %d
TOC of the extracted CD
Track | Start | Length | Start sector | End sector
---------------------------------------------------------
1 | 0:00.00 | 1:17.06 | 0 | 5780
2 | 1:17.06 | 3:16.04 | 5781 | 20484
3 | 4:33.10 | 3:24.37 | 20485 | 35821
4 | 7:57.47 | 3:27.66 | 35822 | 51412
5 | 11:25.38 | 2:08.29 | 51413 | 61041
6 | 13:33.67 | 2:53.49 | 61042 | 74065
7 | 16:27.41 | 3:00.65 | 74066 | 87630
8 | 19:28.31 | 3:14.56 | 87631 | 102236
9 | 22:43.12 | 3:10.68 | 102237 | 116554
10 | 25:54.05 | 2:31.05 | 116555 | 127884
11 | 28:25.10 | 3:23.33 | 127885 | 143142
12 | 31:48.43 | 0:33.55 | 143143 | 145672
13 | 32:22.23 | 4:04.15 | 145673 | 163987
14 | 36:26.38 | 3:50.56 | 163988 | 181293
15 | 40:17.19 | 1:08.23 | 181294 | 186416
Track 1
Filename D:\Ripped Music\Galactic\Ya-Ka-May\01 Friends of Science.wav
Pre-gap length 0:00:02.00
Peak level 100.0 %
Track quality 100.0 %
Test CRC 9D7FAA2B
Copy CRC 9D7FAA2B
Track not present in AccurateRip database
Copy OK
Track 2
Filename D:\Ripped Music\Galactic\Ya-Ka-May\02 Boe Money (feat. The Rebirth Brass Band).wav
Peak level 100.0 %
Track quality 100.0 %
Test CRC 00FF1FF7
Copy CRC 00FF1FF7
Track not present in AccurateRip database
Copy OK
Track 3
Filename D:\Ripped Music\Galactic\Ya-Ka-May\03 Double It (feat. Big Freedia).wav
Peak level 100.0 %
Track quality 100.0 %
Test CRC BA17C19A
Copy CRC BA17C19A
Track not present in AccurateRip database
Copy OK
Track 4
Filename D:\Ripped Music\Galactic\Ya-Ka-May\04 Heart of Steel (feat. Irma Thomas).wav
Peak level 98.8 %
Track quality 99.9 %
Test CRC 16C205E7
Copy CRC 16C205E7
Track not present in AccurateRip database
Copy OK
Track 5
Filename D:\Ripped Music\Galactic\Ya-Ka-May\05 Wild Man (feat. Big Chief Bo Dollis).wav
Peak level 100.0 %
Track quality 100.0 %
Test CRC 99F4ADEE
Copy CRC 99F4ADEE
Track not present in AccurateRip database
Copy OK
Track 6
Filename D:\Ripped Music\Galactic\Ya-Ka-May\06 Bacchus (feat. Aleen Toussaint).wav
Peak level 100.0 %
Track quality 99.9 %
Test CRC 638E4189
Copy CRC 638E4189
Track not present in AccurateRip database
Copy OK
Track 7
Filename D:\Ripped Music\Galactic\Ya-Ka-May\07 Katey vs. Nobby (feat. Katey Red & Sissy Nobby).wav
Peak level 100.0 %
Track quality 100.0 %
Test CRC 98A7B46D
Copy CRC 98A7B46D
Track not present in AccurateRip database
Copy OK
Track 8
Filename D:\Ripped Music\Galactic\Ya-Ka-May\08 Cineramascope (feat. Trombone Shorty & Corey Henry).wav
Peak level 100.0 %
Track quality 100.0 %
Test CRC 9E6D6C4C
Copy CRC 9E6D6C4C
Track not present in AccurateRip database
Copy OK
Track 9
Filename D:\Ripped Music\Galactic\Ya-Ka-May\09 Dark Water (feat. John Boutte).wav
Peak level 100.0 %
Track quality 99.9 %
Test CRC 4F9D1DB6
Copy CRC 4F9D1DB6
Track not present in AccurateRip database
Copy OK
Track 10
Filename D:\Ripped Music\Galactic\Ya-Ka-May\10 Do It Again (feat. Cheeky Blakk).wav
Peak level 100.0 %
Track quality 99.9 %
Test CRC 1D88D492
Copy CRC 1D88D492
Track not present in AccurateRip database
Copy OK
Track 11
Filename D:\Ripped Music\Galactic\Ya-Ka-May\11 Liquor Pang (feat. Josh Cohen & Ryan Scully from the Morning 40 Federation).wav
Peak level 100.0 %
Track quality 100.0 %
Test CRC 70C20093
Copy CRC 70C20093
Track not present in AccurateRip database
Copy OK
Track 12
Filename D:\Ripped Music\Galactic\Ya-Ka-May\12 Krewe d'Etat.wav
Peak level 100.0 %
Track quality 100.0 %
Test CRC 30CD7EDD
Copy CRC 30CD7EDD
Track not present in AccurateRip database
Copy OK
Track 13
Filename D:\Ripped Music\Galactic\Ya-Ka-May\13 You Don't Know (feat. Glen David Andrews & The Rebirth Brass Band).wav
Peak level 100.0 %
Track quality 100.0 %
Test CRC ECD366FA
Copy CRC ECD366FA
Track not present in AccurateRip database
Copy OK
Track 14
Filename D:\Ripped Music\Galactic\Ya-Ka-May\14 Speaks His Mind (feat. Walter 'Wolfman' Washington).wav
Peak level 100.0 %
Track quality 99.9 %
Test CRC EE2AD6A4
Copy CRC EE2AD6A4
Track not present in AccurateRip database
Copy OK
Track 15
Filename D:\Ripped Music\Galactic\Ya-Ka-May\15 Do It Again (Again) (feat. Cheeky Blakk).wav
Peak level 100.0 %
Track quality 100.0 %
Test CRC 907D1D76
Copy CRC 907D1D76
Track not present in AccurateRip database
Copy OK
None of the tracks are present in the AccurateRip database
No errors occurred
End of status report
 
Проверка CDDA Audiochecker
AUDIOCHECKER v2.0 beta (build 457) - by Dester - opdester@freemail.hu
~~~~~~~~~~~~~~~~~~~~~~~~~~~~~~~~~~
-=== DO NOT EDIT THIS FILE! ===-
Path: ...\Ya-Ka-May
01 -=- 01 Friends of Science.flac -=- MPEG (95%)
02 -=- 02 Boe Money (feat. The Rebirth Brass Band).flac -=- CDDA (100%)
03 -=- 03 Double It (feat. Big Freedia).flac -=- CDDA (99%)
04 -=- 04 Heart of Steel (feat. Irma Thomas).flac -=- CDDA (100%)
05 -=- 05 Wild Man (feat. Big Chief Bo Dollis).flac -=- CDDA (100%)
06 -=- 06 Bacchus (feat. Aleen Toussaint).flac -=- CDDA (100%)
07 -=- 07 Katey vs. Nobby (feat. Katey Red & Sissy Nobby).flac -=- CDDA (100%)
08 -=- 08 Cineramascope (feat. Trombone Shorty & Corey Henry).flac -=- CDDA (100%)
09 -=- 09 Dark Water (feat. John Boutte).flac -=- CDDA (100%)
10 -=- 10 Do It Again (feat. Cheeky Blakk).flac -=- CDDA (100%)
11 -=- 11 Liquor Pang (feat. Josh Cohen & Ryan Scully from the Morning 40 Federation).flac -=- MPEG (95%)
12 -=- 12 Krewe d'Etat.flac -=- CDDA (100%)
13 -=- 13 You Don't Know (feat. Glen David Andrews & The Rebirth Brass Band).flac -=- MPEG (95%)
14 -=- 14 Speaks His Mind (feat. Walter 'Wolfman' Washington).flac -=- CDDA (100%)
15 -=- 15 Do It Again (Again) (feat. Cheeky Blakk).flac -=- CDDA (100%)
Summary 80,93% CDDA
88698244
 
CUE Sheet:
REM GENRE Electronic
REM DATE 2010
REM DISCID E909B50F
REM COMMENT "ExactAudioCopy v0.99pb5"
PERFORMER "Galactic"
TITLE "Ya-Ka-May"
FILE "01 Friends of Science.flac" WAVE
TRACK 01 AUDIO
TITLE "Friends of Science"
PERFORMER "Galactic"
ISRC USEP40932001
FLAGS DCP
INDEX 01 00:00:00
FILE "02 Boe Money (feat. The Rebirth Brass Band).flac" WAVE
TRACK 02 AUDIO
TITLE "Boe Money (feat. The Rebirth Brass Band)"
PERFORMER "Galactic"
ISRC USEP40932002
FLAGS DCP
INDEX 01 00:00:00
FILE "03 Double It (feat. Big Freedia).flac" WAVE
TRACK 03 AUDIO
TITLE "Double It (feat. Big Freedia)"
PERFORMER "Galactic"
ISRC USEP40932003
FLAGS DCP
INDEX 01 00:00:00
FILE "04 Heart of Steel (feat. Irma Thomas).flac" WAVE
TRACK 04 AUDIO
TITLE "Heart of Steel (feat. Irma Thomas)"
PERFORMER "Galactic"
ISRC USEP40932004
FLAGS DCP
INDEX 01 00:00:00
FILE "05 Wild Man (feat. Big Chief Bo Dollis).flac" WAVE
TRACK 05 AUDIO
TITLE "Wild Man (feat. Big Chief Bo Dollis)"
PERFORMER "Galactic"
ISRC USEP40932005
FLAGS DCP
INDEX 01 00:00:00
FILE "06 Bacchus (feat. Aleen Toussaint).flac" WAVE
TRACK 06 AUDIO
TITLE "Bacchus (feat. Aleen Toussaint)"
PERFORMER "Galactic"
ISRC USEP40932006
FLAGS DCP
INDEX 01 00:00:00
FILE "07 Katey vs. Nobby (feat. Katey Red & Sissy Nobby).flac" WAVE
TRACK 07 AUDIO
TITLE "Katey vs. Nobby (feat. Katey Red & Sissy Nobby)"
PERFORMER "Galactic"
ISRC USEP40932007
FLAGS DCP
INDEX 01 00:00:00
FILE "08 Cineramascope (feat. Trombone Shorty & Corey Henry).flac" WAVE
TRACK 08 AUDIO
TITLE "Cineramascope (feat. Trombone Shorty & Corey Henry)"
PERFORMER "Galactic"
ISRC USEP40932008
FLAGS DCP
INDEX 01 00:00:00
FILE "09 Dark Water (feat. John Boutte).flac" WAVE
TRACK 09 AUDIO
TITLE "Dark Water (feat. John Boutte)"
PERFORMER "Galactic"
ISRC USEP40932009
FLAGS DCP
INDEX 01 00:00:00
FILE "10 Do It Again (feat. Cheeky Blakk).flac" WAVE
TRACK 10 AUDIO
TITLE "Do It Again (feat. Cheeky Blakk)"
PERFORMER "Galactic"
ISRC USEP40932010
FLAGS DCP
INDEX 01 00:00:00
FILE "11 Liquor Pang (feat. Josh Cohen & Ryan Scully from the Morning 40 Federation).flac" WAVE
TRACK 11 AUDIO
TITLE "Liquor Pang (feat. Josh Cohen & Ryan Scully from the Morning 40 Federation)"
PERFORMER "Galactic"
ISRC USEP40932011
FLAGS DCP
INDEX 01 00:00:00
FILE "12 Krewe d'Etat.flac" WAVE
TRACK 12 AUDIO
TITLE "Krewe d'Etat"
PERFORMER "Galactic"
ISRC USEP40932012
FLAGS DCP
INDEX 01 00:00:00
FILE "13 You Don't Know (feat. Glen David Andrews & The Rebirth Brass Band).flac" WAVE
TRACK 13 AUDIO
TITLE "You Don't Know (feat. Glen David Andrews & The Rebirth Brass Band)"
PERFORMER "Galactic"
ISRC USEP40932013
FLAGS DCP
INDEX 01 00:00:00
FILE "14 Speaks His Mind (feat. Walter 'Wolfman' Washington).flac" WAVE
TRACK 14 AUDIO
TITLE "Speaks His Mind (feat. Walter 'Wolfman' Washington)"
PERFORMER "Galactic"
ISRC USEP40932014
FLAGS DCP
INDEX 01 00:00:00
FILE "15 Do It Again (Again) (feat. Cheeky Blakk).flac" WAVE
TRACK 15 AUDIO
TITLE "Do It Again (Again) (feat. Cheeky Blakk)"
PERFORMER "Galactic"
ISRC USEP40932015
FLAGS DCP
INDEX 01 00:00:00
Приватный:
Нет (DHT включён)
Размер:
261.45 Мб (274,147,461 байт) » файлов: 19
Участники:
0 раздают, 0 качают (0 участников всего)
Внешние участники:
5 раздают, 1 качают (6 участников всего) [ Обновить ]
Никого нет на раздаче - пишите личное сообщение M0p94ok
No seeders - write personal message to M0p94ok
02:25
46
Нет комментариев. Ваш будет первым!