Поиск

(Funk / Jazz-Funk / Afro-Beat / Experimental) Nomo - Ghost Rock - 2008, FLAC (tracks+.cue), lossless

Треклист:
Nomo - Ghost Rock
Жанр: Funk / Jazz-Funk / Afro-Beat / Experimental
Год выпуска диска: 2008
Производитель диска: UBIQUITY RECORDS
Аудио кодек: FLAC
Тип рипа: tracks+.cue
Битрейт аудио: lossless
Продолжительность: 47:56
Трэклист:
1. Brainwave (3:59)
2. All the Stars (6:44)
3. Round the way (4:28)
4. Rings (6:00)
5. My dear (5:37)
6. Ghost Rock (6:00)
7. Last Beat (6:11)
8. Three Shades (5:40)
9. Nova (3:12)
 
EAC log
Exact Audio Copy V0.99 prebeta 4 from 23. January 2008
EAC extraction logfile from 22. November 2008, 13:30
Nomo / Ghost Rock
Used drive : SONY DVD RW DRU-842A Adapter: 2 ID: 0
Read mode : Secure
Utilize accurate stream : Yes
Defeat audio cache : Yes
Make use of C2 pointers : No
Read offset correction : 6
Overread into Lead-In and Lead-Out : No
Fill up missing offset samples with silence : Yes
Delete leading and trailing silent blocks : No
Null samples used in CRC calculations : Yes
Used interface : Native Win32 interface for Win NT & 2000
Gap handling : Appended to previous track
Used output format : User Defined Encoder
Selected bitrate : 192 kBit/s
Quality : High
Add ID3 tag : No
Command line compressor : C:\Program Files\FLAC\flac.exe
Additional command line options : -V -8 -T "artist=%a" -T "title=%t" -T "album=%g" -T "date=%y" -T "tracknumber=%n" -T "genre=%m" %s
TOC of the extracted CD
Track | Start | Length | Start sector | End sector
---------------------------------------------------------
1 | 0:00.00 | 3:59.55 | 0 | 17979
2 | 3:59.55 | 6:44.66 | 17980 | 48345
3 | 10:44.46 | 4:28.21 | 48346 | 68466
4 | 15:12.67 | 6:00.50 | 68467 | 95516
5 | 21:13.42 | 5:37.74 | 95517 | 120865
6 | 26:51.41 | 6:00.09 | 120866 | 147874
7 | 32:51.50 | 6:11.39 | 147875 | 175738
8 | 39:03.14 | 5:40.56 | 175739 | 201294
9 | 44:43.70 | 3:12.73 | 201295 | 215767
Track 1
Filename C:\new music\01 - Brainwave.wav
Pre-gap length 0:00:02.00
Peak level 100.0 %
Track quality 99.9 %
Test CRC 59A04DFE
Copy CRC 59A04DFE
Copy OK
Track 2
Filename C:\new music\02 - All the Stars.wav
Peak level 100.0 %
Track quality 100.0 %
Test CRC B949CA7C
Copy CRC B949CA7C
Copy OK
Track 3
Filename C:\new music\03 - Round the Way.wav
Peak level 100.0 %
Track quality 99.9 %
Test CRC 0C1E78E2
Copy CRC 0C1E78E2
Copy OK
Track 4
Filename C:\new music\04 - Rings.wav
Peak level 100.0 %
Track quality 100.0 %
Test CRC D8C1C8B3
Copy CRC D8C1C8B3
Copy OK
Track 5
Filename C:\new music\05 - My Dear.wav
Peak level 100.0 %
Track quality 100.0 %
Test CRC 373B9BF6
Copy CRC 373B9BF6
Copy OK
Track 6
Filename C:\new music\06 - Ghost Rock.wav
Peak level 99.9 %
Track quality 100.0 %
Test CRC CB4A8A12
Copy CRC CB4A8A12
Copy OK
Track 7
Filename C:\new music\07 - Last Beat.wav
Peak level 100.0 %
Track quality 100.0 %
Test CRC A218ED52
Copy CRC A218ED52
Copy OK
Track 8
Filename C:\new music\08 - Three Shades.wav
Peak level 100.0 %
Track quality 100.0 %
Test CRC 328A664A
Copy CRC 328A664A
Copy OK
Track 9
Filename C:\new music\09 - Nova.wav
Peak level 99.6 %
Track quality 100.0 %
Test CRC DBA5E294
Copy CRC DBA5E294
Copy OK
No errors occurred
End of status report
 
auCDtect log
-----------------------
DON'T MODIFY THIS FILE
-----------------------
PERFORMER: auCDtect Task Manager, ver. 1.0.3 B1 build 1.0.3.0
Copyright (c) 2008, 2009 y-soft. All rights reserved
http://y-soft.110mb.com
ANALYZER: auCDtect: CD records authenticity detector, version 0.8.2
Copyright (c) 2004 Oleg Berngardt. All rights reserved.
Copyright (c) 2004 Alexander Djourik. All rights reserved.
FILE: 01 - Brainwave.flac
Size: 24452136 Hash: EC063F1CDB4F8B93D9B9121C1C4832A4 Accuracy: -m0
Conclusion: CDDA 99%
Signature: 17535FFDBDD0E258A52B61FC34BEAC347136FE52
FILE: 02 - All the Stars.flac
Size: 44690933 Hash: 69AABDFC26A9723CEA6D2E5FE6F2F727 Accuracy: -m0
Conclusion: CDDA 100%
Signature: 925DAB481ED59874357125C02BCA262BA9C33A6C
FILE: 03 - Round the Way.flac
Size: 33004374 Hash: 4C4C913E5474AB0435BBB2C54612DAC1 Accuracy: -m0
Conclusion: CDDA 100%
Signature: E9732340F34EA7B743B4E1BC59BD92F895796284
FILE: 04 - Rings.flac
Size: 38386764 Hash: 3E8F57C898A0E5FBB93E3E60BB7CDA63 Accuracy: -m0
Conclusion: CDDA 100%
Signature: A2B4A342E32C863C7ACE62F2FEE920E03B647204
FILE: 05 - My Dear.flac
Size: 39979306 Hash: 66F9A94EEA2FE883E3CD0D2ED17AB76B Accuracy: -m0
Conclusion: CDDA 100%
Signature: 7D50469B5BEBBF550A6C24E292843FEAFD26FF8F
FILE: 06 - Ghost Rock.flac
Size: 41796474 Hash: F65793016A30EA969DC57FF4AD5E9F15 Accuracy: -m0
Conclusion: CDDA 100%
Signature: CD7CB8240F28D29806E4EB468F09C95CB7821D42
FILE: 07 - Last Beat.flac
Size: 43334053 Hash: 425A66B94F5323828A82DFC640DC32D8 Accuracy: -m0
Conclusion: CDDA 100%
Signature: DB3AE71E82359E7A6C2F87A9CC63A33A3F432D02
FILE: 09 - Nova.flac
Size: 18398038 Hash: F1EA5D64200CB151C9A7DC9143EE312F Accuracy: -m0
Conclusion: CDDA 100%
Signature: C8476249CEBFB92F5FF150D937937322C27E92E4
FILE: 08 - Three Shades.flac
Size: 37378733 Hash: 047D5D469005A1061AADD83EF84483DE Accuracy: -m0
Conclusion: CDDA 100%
Signature: E05C96972B2A45E03767BB8958E444941E4CAB50
 
CUE
REM GENRE Instrumental
REM DATE 2008
REM DISCID 780B3C09
REM COMMENT "ExactAudioCopy v0.99pb4"
PERFORMER "Nomo"
TITLE "Ghost Rock"
FILE "01 - Brainwave.wav" WAVE
TRACK 01 AUDIO
TITLE "Brainwave"
PERFORMER "Nomo"
INDEX 01 00:00:00
FILE "02 - All the Stars.wav" WAVE
TRACK 02 AUDIO
TITLE "All the Stars"
PERFORMER "Nomo"
INDEX 01 00:00:00
FILE "03 - Round the Way.wav" WAVE
TRACK 03 AUDIO
TITLE "Round the Way"
PERFORMER "Nomo"
INDEX 01 00:00:00
FILE "04 - Rings.wav" WAVE
TRACK 04 AUDIO
TITLE "Rings"
PERFORMER "Nomo"
INDEX 01 00:00:00
FILE "05 - My Dear.wav" WAVE
TRACK 05 AUDIO
TITLE "My Dear"
PERFORMER "Nomo"
INDEX 01 00:00:00
FILE "06 - Ghost Rock.wav" WAVE
TRACK 06 AUDIO
TITLE "Ghost Rock"
PERFORMER "Nomo"
INDEX 01 00:00:00
FILE "07 - Last Beat.wav" WAVE
TRACK 07 AUDIO
TITLE "Last Beat"
PERFORMER "Nomo"
INDEX 01 00:00:00
FILE "08 - Three Shades.wav" WAVE
TRACK 08 AUDIO
TITLE "Three Shades"
PERFORMER "Nomo"
INDEX 01 00:00:00
FILE "09 - Nova.wav" WAVE
TRACK 09 AUDIO
TITLE "Nova"
PERFORMER "Nomo"
INDEX 01 00:00:00
Приватный:
Нет (DHT включён)
Размер:
306.89 Мб (321,792,450 байт) » файлов: 14
Участники:
0 раздают, 0 качают (0 участников всего)
Внешние участники:
--- [ Обновить ]
Никого нет на раздаче - пишите личное сообщение M0p94ok
No seeders - write personal message to M0p94ok
02:22
20
Нет комментариев. Ваш будет первым!