Поиск

(Funk, Folk, Soul) Ruth Copeland - Self Portrait & I Am What I Am - 1971, FLAC (tracks+.cue), lossless

(Funk, Folk, Soul) Ruth Copeland - Self Portrait & I Am What I Am - 1971, FLAC (tracks+.cue), lossless
Треклист:
Ruth Copeland - Self Portrait & I Am What I Am
Жанр: Funk, Folk, Soul
Год выпуска диска: 1971
Производитель диска: UK
Аудио кодек: FLAC
Тип рипа: tracks+.cue
Битрейт аудио: lossless
Продолжительность: 75:24
Трэклист:
Self Portrait 1971 LP Invictus 7303
01 - Prologue: Child Of The North (4:59) (Copeland)
02 - Thanks For The Birthday Card (5:05) (Copeland)
03 - Your Love Been So Good To Me (3:21) (Copeland-Ross-Clinton)
04 - The Music Box (3:40) (Copeland-Wayne-Dunbar)
05 - The Silent Boatman (6:19) (Copeland)
06 - To William In The Night (3:22) (Copeland-Alawander-Wayne-Dunbar)
07 - No Commitment (4:04) (Copeland)
08 - I Got A Thing For You Daddy (2:58) (Copeland-Hazel-Clinton)
09 - A Gift Of Me (1:57) (Copeland-Wayne-Dunbar)
Ruth Copeland - Acc Guitar, Vocals, Background Vocals
Eddie Hazel - Lead Guitar
Tawn Ross - Rhythm Guitar
Bernie Worrell - Keyboards
Billy Bass Nelson - Bass
Tiki Fulwood - Drums
I Am What I Am 1971 LP Invictus
10 - The Medal (6:44) (Copeland-Baldwin)
11 - Crying Has Made Me Stronger (5:22) (Copeland-Clinton)
12 - Hare Krishna (3:18) (Copeland)
13 - Suburban Family Lament (3:47) (Copeland-Hazel)
14 - Play With Fire (7:32) (Jagger-Richards)
15 - Don't You Wish You Had (What You Had When You Had It) (4:45) (Copeland-Clinton)
16 - Gimme Shelter (8:03) (Jagger-Richards)
Ruth Copeland - Vocals, Background Vocals
Eddie Hazel - Lead Guitar
Ron Bykowski - Guitar
Ray Monette - Guitar
Bernie Worrell - Keyboards
Billy Bass Nelson - Bass
Dawn Hatcher - Bass
Tiki Fulwood - Drums
Доп. информация: Источник - Pedro (btmusic.eu)
 
LOG
EAC extraction logfile from 9. August 2006, 2:25 for CD
Ruth Copeland featuring Parliament / Self Portrait & I Am What I Am
Used drive : TSSTcorpCD/DVDW TS-H542A Adapter: 1 ID: 0
Read mode : Secure with NO C2, accurate stream, disable cache
Read offset correction : 116
Overread into Lead-In and Lead-Out : No
Used output format : Internal WAV Routines
44.100 Hz; 16 Bit; Stereo
Other options :
Fill up missing offset samples with silence : Yes
Delete leading and trailing silent blocks : No
Installed external ASPI interface
Track 1
Filename J:\Seeds\Ruth Copeland - Self Portrait & I Am What I Am (1971) [FLAC]\01 - Prologue Child Of The North.wav
Pre-gap length 0:00:02.42
Peak level 98.8 %
Track quality 100.0 %
Test CRC 8E5278C9
Copy CRC 8E5278C9
Copy OK
Track 2
Filename J:\Seeds\Ruth Copeland - Self Portrait & I Am What I Am (1971) [FLAC]\02 - Thanks For The Birthday Card.wav
Pre-gap length 0:00:02.66
Peak level 98.8 %
Track quality 99.9 %
Test CRC A7FD7CFA
Copy CRC A7FD7CFA
Copy OK
Track 3
Filename J:\Seeds\Ruth Copeland - Self Portrait & I Am What I Am (1971) [FLAC]\03 - Your Love Been So Good To Me.wav
Pre-gap length 0:00:02.49
Peak level 93.2 %
Track quality 100.0 %
Test CRC 28127182
Copy CRC 28127182
Copy OK
Track 4
Filename J:\Seeds\Ruth Copeland - Self Portrait & I Am What I Am (1971) [FLAC]\04 - The Music Box.wav
Pre-gap length 0:00:02.69
Peak level 98.5 %
Track quality 100.0 %
Test CRC 13E4080D
Copy CRC 13E4080D
Copy OK
Track 5
Filename J:\Seeds\Ruth Copeland - Self Portrait & I Am What I Am (1971) [FLAC]\05 - The Silent Boatman.wav
Pre-gap length 0:00:02.66
Peak level 98.8 %
Track quality 100.0 %
Test CRC 8DB083F8
Copy CRC 8DB083F8
Copy OK
Track 6
Filename J:\Seeds\Ruth Copeland - Self Portrait & I Am What I Am (1971) [FLAC]\06 - To William In The Night.wav
Pre-gap length 0:00:02.70
Peak level 97.8 %
Track quality 100.0 %
Test CRC 419B065B
Copy CRC 419B065B
Copy OK
Track 7
Filename J:\Seeds\Ruth Copeland - Self Portrait & I Am What I Am (1971) [FLAC]\07 - No Commitment.wav
Pre-gap length 0:00:02.66
Peak level 98.8 %
Track quality 100.0 %
Test CRC 41FB0B25
Copy CRC 41FB0B25
Copy OK
Track 8
Filename J:\Seeds\Ruth Copeland - Self Portrait & I Am What I Am (1971) [FLAC]\08 - I Got A Thing For You Daddy.wav
Pre-gap length 0:00:02.62
Peak level 98.8 %
Track quality 100.0 %
Test CRC 0197B2D2
Copy CRC 0197B2D2
Copy OK
Track 9
Filename J:\Seeds\Ruth Copeland - Self Portrait & I Am What I Am (1971) [FLAC]\09 - A Gift Of Me.wav
Pre-gap length 0:00:02.69
Peak level 63.4 %
Track quality 100.0 %
Test CRC 96105B60
Copy CRC 96105B60
Copy OK
Track 10
Filename J:\Seeds\Ruth Copeland - Self Portrait & I Am What I Am (1971) [FLAC]\10 - The Medal.wav
Pre-gap length 0:00:02.66
Peak level 98.8 %
Track quality 100.0 %
Test CRC 83CBD384
Copy CRC 83CBD384
Copy OK
Track 11
Filename J:\Seeds\Ruth Copeland - Self Portrait & I Am What I Am (1971) [FLAC]\11 - Crying Has Made Me Stronger.wav
Pre-gap length 0:00:02.70
Peak level 91.0 %
Track quality 99.9 %
Test CRC D25D9707
Copy CRC D25D9707
Copy OK
Track 12
Filename J:\Seeds\Ruth Copeland - Self Portrait & I Am What I Am (1971) [FLAC]\12 - Hare Krishna.wav
Pre-gap length 0:00:02.66
Peak level 98.8 %
Track quality 99.8 %
Test CRC E8CEBDEE
Copy CRC E8CEBDEE
Copy OK
Track 13
Filename J:\Seeds\Ruth Copeland - Self Portrait & I Am What I Am (1971) [FLAC]\13 - Suburban Family Lament.wav
Pre-gap length 0:00:02.66
Peak level 98.8 %
Track quality 100.0 %
Test CRC C18315F2
Copy CRC C18315F2
Copy OK
Track 14
Filename J:\Seeds\Ruth Copeland - Self Portrait & I Am What I Am (1971) [FLAC]\14 - Play With Fire.wav
Pre-gap length 0:00:02.69
Peak level 98.8 %
Track quality 100.0 %
Test CRC 278509DA
Copy CRC 278509DA
Copy OK
Track 15
Filename J:\Seeds\Ruth Copeland - Self Portrait & I Am What I Am (1971) [FLAC]\15 - Don't You Wish You Had (What You Had When You Had It).wav
Pre-gap length 0:00:02.66
Peak level 98.8 %
Track quality 99.9 %
Test CRC 5E2AEF81
Copy CRC 5E2AEF81
Copy OK
Track 16
Filename J:\Seeds\Ruth Copeland - Self Portrait & I Am What I Am (1971) [FLAC]\16 - Gimme Shelter.wav
Pre-gap length 0:00:02.66
Peak level 98.8 %
Track quality 99.9 %
Test CRC 1E3704B1
Copy CRC 1E3704B1
Copy OK
No errors occured
End of status report
 
CUE
PERFORMER "Ruth Copeland featuring Parliament"
TITLE "Self Portrait & I Am What I Am"
FILE "01 - Prologue Child Of The North.wav" WAVE
TRACK 01 AUDIO
TITLE "Prologue Child Of The North"
PERFORMER "Ruth Copeland featuring Parliament"
INDEX 01 00:00:00
TRACK 02 AUDIO
TITLE "Thanks For The Birthday Card"
PERFORMER "Ruth Copeland featuring Parliament"
INDEX 00 04:56:33
FILE "02 - Thanks For The Birthday Card.wav" WAVE
INDEX 01 00:00:00
TRACK 03 AUDIO
TITLE "Your Love Been So Good To Me"
PERFORMER "Ruth Copeland featuring Parliament"
INDEX 00 05:02:50
FILE "03 - Your Love Been So Good To Me.wav" WAVE
INDEX 01 00:00:00
TRACK 04 AUDIO
TITLE "The Music Box"
PERFORMER "Ruth Copeland featuring Parliament"
INDEX 00 03:18:73
FILE "04 - The Music Box.wav" WAVE
INDEX 01 00:00:00
TRACK 05 AUDIO
TITLE "The Silent Boatman"
PERFORMER "Ruth Copeland featuring Parliament"
INDEX 00 03:38:05
FILE "05 - The Silent Boatman.wav" WAVE
INDEX 01 00:00:00
TRACK 06 AUDIO
TITLE "To William In The Night"
PERFORMER "Ruth Copeland featuring Parliament"
INDEX 00 06:16:50
FILE "06 - To William In The Night.wav" WAVE
INDEX 01 00:00:00
TRACK 07 AUDIO
TITLE "No Commitment"
PERFORMER "Ruth Copeland featuring Parliament"
INDEX 00 03:19:27
FILE "07 - No Commitment.wav" WAVE
INDEX 01 00:00:00
TRACK 08 AUDIO
TITLE "I Got A Thing For You Daddy"
PERFORMER "Ruth Copeland featuring Parliament"
INDEX 00 04:01:48
FILE "08 - I Got A Thing For You Daddy.wav" WAVE
INDEX 01 00:00:00
TRACK 09 AUDIO
TITLE "A Gift Of Me"
PERFORMER "Ruth Copeland featuring Parliament"
INDEX 00 02:55:23
FILE "09 - A Gift Of Me.wav" WAVE
INDEX 01 00:00:00
TRACK 10 AUDIO
TITLE "The Medal"
PERFORMER "Ruth Copeland featuring Parliament"
INDEX 00 01:54:68
FILE "10 - The Medal.wav" WAVE
INDEX 01 00:00:00
TRACK 11 AUDIO
TITLE "Crying Has Made Me Stronger"
PERFORMER "Ruth Copeland featuring Parliament"
INDEX 00 06:42:12
FILE "11 - Crying Has Made Me Stronger.wav" WAVE
INDEX 01 00:00:00
TRACK 12 AUDIO
TITLE "Hare Krishna"
PERFORMER "Ruth Copeland featuring Parliament"
INDEX 00 05:19:72
FILE "12 - Hare Krishna.wav" WAVE
INDEX 01 00:00:00
TRACK 13 AUDIO
TITLE "Suburban Family Lament"
PERFORMER "Ruth Copeland featuring Parliament"
INDEX 00 03:16:08
FILE "13 - Suburban Family Lament.wav" WAVE
INDEX 01 00:00:00
TRACK 14 AUDIO
TITLE "Play With Fire"
PERFORMER "Ruth Copeland featuring Parliament"
INDEX 00 03:45:20
FILE "14 - Play With Fire.wav" WAVE
INDEX 01 00:00:00
TRACK 15 AUDIO
TITLE "Don't You Wish You Had (What You Had When You Had It)"
PERFORMER "Ruth Copeland featuring Parliament"
INDEX 00 07:30:08
FILE "15 - Don't You Wish You Had (What You Had When You Had It).wav" WAVE
INDEX 01 00:00:00
TRACK 16 AUDIO
TITLE "Gimme Shelter"
PERFORMER "Ruth Copeland featuring Parliament"
INDEX 00 04:43:07
FILE "16 - Gimme Shelter.wav" WAVE
INDEX 01 00:00:00
Приватный:
Нет (DHT включён)
Размер:
499.31 Мб (523,565,497 байт) » файлов: 35
Участники:
0 раздают, 0 качают (0 участников всего)
Внешние участники:
3 раздают, 1 качают (4 участников всего) [ Обновить ]
02:26
35
Нет комментариев. Ваш будет первым!