Поиск

(Smooth Jazz / Insturmental R&B) Patrice Rushen - Signature - 1997, FLAC (tracks+.cue), lossless

(Smooth Jazz / Insturmental R&B) Patrice Rushen - Signature - 1997, FLAC (tracks+.cue), lossless
Треклист:
Patrice Rushen - Signature
Жанр: Smooth Jazz / Insturmental R&B
Год выпуска диска: 1997
Аудио кодек: FLAC
Тип рипа: tracks+.cue
Битрейт аудио: lossless
Продолжительность: 0:50:02
Трэклист:
01. Almost Home [Rushen] (4:26)
02. Days Gone By [Rushen] (5:03)
03. Sweetest Taboo [Ditcham, Ditchum, Adu] (5:21)
04. Sneaky Pete [Rushen] (4:12)
05. Softly [Rushen] (6:10)
06. Hurry Up This Way Again [Biggs, Wansel] (6:02)
07. L' Esprit de Joie (The Spirit of Joy) [Rushen] (4:40)
08. Wise Ol' Souls [Rushen] (4:31)
09. Oneness [Chancler, Rushen] (5:00)
10. Arrival [Rushen] (4:33)
Источник рипа: Найдено в сети. Released by RunawayTrane.
 
CUE
REM GENRE Jazz
REM DATE 1997
REM DISCID 880BBA0A
REM COMMENT ExactAudioCopy v0.99pb5
PERFORMER "Patrice Rushen"
TITLE "Signature"
FILE "01 - Patrice Rushen - Almost Home - 1997.flac" WAVE
TRACK 01 AUDIO
TITLE "Almost Home"
INDEX 01 00:00:00
FILE "02 - Patrice Rushen - Days Gone By - 1997.flac" WAVE
TRACK 02 AUDIO
TITLE "Days Gone By"
INDEX 01 00:00:00
FILE "03 - Patrice Rushen - Sweetest Taboo - 1997.flac" WAVE
TRACK 03 AUDIO
TITLE "Sweetest Taboo"
INDEX 01 00:00:00
FILE "04 - Patrice Rushen - Sneaky Pete - 1997.flac" WAVE
TRACK 04 AUDIO
TITLE "Sneaky Pete"
INDEX 01 00:00:00
FILE "05 - Patrice Rushen - Softly - 1997.flac" WAVE
TRACK 05 AUDIO
TITLE "Softly"
INDEX 01 00:00:00
FILE "06 - Patrice Rushen - Hurry Up This Way Again - 1997.flac" WAVE
TRACK 06 AUDIO
TITLE "Hurry Up This Way Again"
INDEX 01 00:00:00
FILE "07 - Patrice Rushen - L'Esprit De Joie (The Spirit Of Joy) - 1997.flac" WAVE
TRACK 07 AUDIO
TITLE "L'Esprit De Joie (The Spirit Of Joy)"
INDEX 01 00:00:00
FILE "08 - Patrice Rushen - Wise Ol' Souls - 1997.flac" WAVE
TRACK 08 AUDIO
TITLE "Wise Ol' Souls"
INDEX 01 00:00:00
FILE "09 - Patrice Rushen - Oneness - 1997.flac" WAVE
TRACK 09 AUDIO
TITLE "Oneness"
INDEX 01 00:00:00
FILE "10 - Patrice Rushen - Arrival - 1997.flac" WAVE
TRACK 10 AUDIO
TITLE "Arrival"
INDEX 01 00:00:00
 
Отчёт EAC
Exact Audio Copy V0.99 prebeta 5 from 4. May 2009
EAC extraction logfile from 3. December 2009, 1:43
Patrice Rushen / Signature
Used drive : TSSTcorpCDDVDW SE-S084C Adapter: 1 ID: 0
Read mode : Secure
Utilize accurate stream : Yes
Defeat audio cache : No
Make use of C2 pointers : No
Read offset correction : 6
Overread into Lead-In and Lead-Out : No
Fill up missing offset samples with silence : Yes
Delete leading and trailing silent blocks : No
Null samples used in CRC calculations : No
Used interface : Native Win32 interface for Win NT & 2000
Gap handling : Not detected, thus appended to previous track
Used output format : Internal WAV Routines
Sample format : 44.100 Hz; 16 Bit; Stereo
TOC of the extracted CD
Track | Start | Length | Start sector | End sector
---------------------------------------------------------
1 | 0:00.00 | 4:25.60 | 0 | 19934
2 | 4:25.60 | 5:04.00 | 19935 | 42734
3 | 9:29.60 | 5:21.30 | 42735 | 66839
4 | 14:51.15 | 4:11.73 | 66840 | 85737
5 | 19:03.13 | 6:10.70 | 85738 | 113557
6 | 25:14.08 | 6:02.52 | 113558 | 140759
7 | 31:16.60 | 4:40.15 | 140760 | 161774
8 | 35:57.00 | 4:31.18 | 161775 | 182117
9 | 40:28.18 | 5:00.02 | 182118 | 204619
10 | 45:28.20 | 4:33.55 | 204620 | 225149
Track 1
Filename J:\seek downloads\Patrice Rushen - Signature wav\Almost Home.wav
Peak level 98.8 %
Track quality 100.0 %
Test CRC 67696245
Copy CRC 67696245
Accurately ripped (confidence 3) [93448552]
Copy OK
Track 2
Filename J:\seek downloads\Patrice Rushen - Signature wav\Days Gone By.wav
Peak level 98.8 %
Track quality 100.0 %
Test CRC 48FAC6E6
Copy CRC 48FAC6E6
Accurately ripped (confidence 3) [57641586]
Copy OK
Track 3
Filename J:\seek downloads\Patrice Rushen - Signature wav\Sweetest Taboo.wav
Peak level 98.8 %
Track quality 99.9 %
Test CRC BC437640
Copy CRC BC437640
Accurately ripped (confidence 2) [2AA8777E]
Copy OK
Track 4
Filename J:\seek downloads\Patrice Rushen - Signature wav\Sneaky Pete.wav
Peak level 98.8 %
Track quality 100.0 %
Test CRC 9D9479D5
Copy CRC 9D9479D5
Accurately ripped (confidence 3) [B72C6D65]
Copy OK
Track 5
Filename J:\seek downloads\Patrice Rushen - Signature wav\Softly.wav
Peak level 98.8 %
Track quality 100.0 %
Test CRC 931C7910
Copy CRC 931C7910
Accurately ripped (confidence 3) [F37CD11D]
Copy OK
Track 6
Filename J:\seek downloads\Patrice Rushen - Signature wav\Hurry Up This Way Again.wav
Peak level 98.8 %
Track quality 100.0 %
Test CRC 2665B7BD
Copy CRC 2665B7BD
Accurately ripped (confidence 2) [99DCD005]
Copy OK
Track 7
Filename J:\seek downloads\Patrice Rushen - Signature wav\L'Esprit De Joie (The Spirit Of Joy).wav
Peak level 98.8 %
Track quality 100.0 %
Test CRC 43328573
Copy CRC 43328573
Accurately ripped (confidence 2) [8775C96A]
Copy OK
Track 8
Filename J:\seek downloads\Patrice Rushen - Signature wav\Wise Ol' Souls.wav
Peak level 98.8 %
Track quality 100.0 %
Test CRC 48179C6E
Copy CRC 48179C6E
Accurately ripped (confidence 2) [2C8B3163]
Copy OK
Track 9
Filename J:\seek downloads\Patrice Rushen - Signature wav\Oneness.wav
Peak level 98.8 %
Track quality 100.0 %
Test CRC C17E0BF2
Copy CRC C17E0BF2
Accurately ripped (confidence 2) [C0AB6299]
Copy OK
Track 10
Filename J:\seek downloads\Patrice Rushen - Signature wav\Arrival.wav
Peak level 98.8 %
Track quality 100.0 %
Test CRC 1D8C2642
Copy CRC 1D8C2642
Accurately ripped (confidence 2) [EB5DD980]
Copy OK
All tracks accurately ripped
No errors occurred
End of status report
1. Almost Home
2. Days Gone By
3. Sweetest Taboo
4. Sneaky Pete
5. Softly
6. Hurry Up This Way Again - Patrice Rushen, Kirk Whalum
7. Esprit de Joie (The Spirit of Joy)
8. Wise Ol' Souls
9. Oneness
10. Arrival
Приватный:
Нет (DHT включён)
Размер:
311.87 Мб (327,023,691 байт) » файлов: 19
Участники:
0 раздают, 0 качают (0 участников всего)
Внешние участники:
1 раздают, 0 качают (1 участников всего) [ Обновить ]
Никого нет на раздаче - пишите личное сообщение M0p94ok
No seeders - write personal message to M0p94ok
02:27
21
Нет комментариев. Ваш будет первым!