Поиск

(Piano Solo, Avant-Garde) Alexander von Schlippenbach - Twelve Tone Tales (2 CD: Vol. 1 и Vol. 2) - 2008, FLAC (tracks+.cue)

(Piano Solo, Avant-Garde) Alexander von Schlippenbach - Twelve Tone Tales (2 CD: Vol. 1 и Vol. 2) - 2008, FLAC (tracks+.cue)
Треклист:
Alexander von Schlippenbach - Twelve Tone Tales (Vol. 1 и Vol. 2) Жанр: Piano Solo, Avant-Garde
Год выпуска диска: 2008
Производитель диска: Intakt
Битрейт аудио: FLAC
Продолжительность: 1:07:22 и 1:06:52
Аудио кодек: FLAC
Тип рипа: tracks+.cue
Трэклист:
 
Трэклист Vol.1
1 TWELVE TONE TALES (Alexander von Schlippenbach) 9’17
Invention / Paraphrase
2 DEVICES AND DESIRES (Alexander von Schlippenbach) 4’50
3 K 2 (Alexander von Schlippenbach) 14’40
4 ALLEGRO AGITATO (Bernd Alois Zimmemann) 4’20
5 THE ONE (Alexander von Schlippenbach) 7’02
6 TWELVE TONE TALES II (Alexander von Schlippenbach) 6’00
Invention a, Paraphrase, Invention b
7 ONLY THING LEFT (Alexander von Schlippenbach) 8’57
8 MEO (Alexander von Schlippenbach) 8’21
9. LOK 03 (Alexander von Schlippenbach) 3'37
 
Трэклист Vol.2
1 TWELVE TONE TALES III (Alexander von Schlippenbach) 5’54
Invention a / Paraphrase / Invention b
2 BISHOP (Alexander von Schlippenbach) 3’42
3 ALLEGORESE (Alexander von Schlippenbach) 9’23
4 WILDCAT’S PROPER HIT (AKI) (Alexander von Schlippenbach) 1’10
5 BORN POTTY (Alexander von Schlippenbach) 5’05
6 ALL JAZZ IS FREE (Alexander von Schlippenbach) 8’18
7 TWELVE TONE TALES IV (Alexander von Schlippenbach) 5’11
Invention a / Paraphrase / Intervention b
8. OFF YOUR COAT HASSAN (Alexander von Schlippenbach) 7’40
9. LES (Eric Dolphy) 3’57
10.SOMETHING SWEET, SOMETHING TENDER (Eric Dolphy) 3’54
11. OUT THERE (Eric Dolphy) 3’01
12. ALL THE THINGS YOU ARE (Jerome Kern) 4’57
13. TRINKLE TINKLE (Thelonious Monk) 4’15
Доп. информация:
 
Отчёт EAC Vol.1
Exact Audio Copy V0.99 prebeta 4 from 23. January 2008
Отчёт EAC об извлечении, выполненном 13. ноября 2008, 12:43
Alexander von Schlippenbach / Twelve Tone Tales Vol. 1
Дисковод: PLEXTOR DVD-ROM PX-130A Adapter: 0 ID: 0
Режим чтения : Достоверность
Использование точного потока : Да
Отключение кэша аудио : Да
Использование указателей C2 : Нет
Коррекция смещения при чтении : 738
Способность читать области Lead-in и Lead-out : Нет
Заполнение пропущенных сэмплов тишиной : Да
Удаление блоков с тишиной в начале и конце : Нет
При вычислениях CRC использовались нулевые сэмплы : Да
Интерфейс : Установленный внешний ASPI-интерфейс
Обработка зазоров : Добавлено к предыдущему треку
Выходной формат : Пользовательский кодировщик
Выбранный битрейт : 768 kBit/s
Качество : Высокий
Добавление ID3-тэга : Нет
Утилита сжатия : C:\Program Files\Exact Audio Copy\Flac\flac.exe
Дополнительные параметры : -V -8 -T "artist=%a" -T "title=%t" -T "album=%g" -T "date=%y" -T "tracknumber=%n" -T "genre=%m" %s
TOC извлечённого CD
Трек | Старт | Длительность | Начальный сектор | Конечный сектор
---------------------------------------------------------------------
1 | 0:00.00 | 9:16.42 | 0 | 41741
2 | 9:16.42 | 4:51.26 | 41742 | 63592
3 | 14:07.68 | 14:42.63 | 63593 | 129805
4 | 28:50.56 | 4:24.42 | 129806 | 149647
5 | 33:15.23 | 6:58.55 | 149648 | 181052
6 | 40:14.03 | 6:02.23 | 181053 | 208225
7 | 46:16.26 | 9:00.13 | 208226 | 248738
8 | 55:16.39 | 8:25.38 | 248739 | 286651
9 | 63:42.02 | 3:40.44 | 286652 | 303195
Трек 1
Имя файла N:\AUDIO CD\! NEW\Alexander von Schlippenbach - Twelve Tone Tales Vol. 1\01 Twelve Tone Tales- Invention, Paraphrase.wav
Длина предзазора 0:00:02.00
Пиковый уровень 91.0 %
Качество трека 99.9 %
CRC теста ADA22525
CRC копии ADA22525
Точное извлечение (достоверность 1) [2AADB67F]
Копирование... OK
Трек 2
Имя файла N:\AUDIO CD\! NEW\Alexander von Schlippenbach - Twelve Tone Tales Vol. 1\02 Twelve Tone Tales- Devices and Desires.wav
Длина предзазора 0:00:02.08
Пиковый уровень 89.4 %
Качество трека 100.0 %
CRC теста D31CCF4D
CRC копии D31CCF4D
Точное извлечение (достоверность 1) [7ED08219]
Копирование... OK
Трек 3
Имя файла N:\AUDIO CD\! NEW\Alexander von Schlippenbach - Twelve Tone Tales Vol. 1\03 Twelve Tone Tales- K 2.wav
Длина предзазора 0:00:02.19
Пиковый уровень 90.0 %
Качество трека 100.0 %
CRC теста FF951854
CRC копии FF951854
Точное извлечение (достоверность 1) [787F4420]
Копирование... OK
Трек 4
Имя файла N:\AUDIO CD\! NEW\Alexander von Schlippenbach - Twelve Tone Tales Vol. 1\04 Twelve Tone Tales- Allegro Agitato.wav
Длина предзазора 0:00:02.39
Пиковый уровень 88.1 %
Качество трека 100.0 %
CRC теста 833450C4
CRC копии 833450C4
Точное извлечение (достоверность 1) [84F07737]
Копирование... OK
Трек 5
Имя файла N:\AUDIO CD\! NEW\Alexander von Schlippenbach - Twelve Tone Tales Vol. 1\05 Twelve Tone Tales- The One.wav
Длина предзазора 0:00:02.72
Пиковый уровень 89.9 %
Качество трека 99.9 %
CRC теста A446CA78
CRC копии A446CA78
Точное извлечение (достоверность 1) [7BF4E4E8]
Копирование... OK
Трек 6
Имя файла N:\AUDIO CD\! NEW\Alexander von Schlippenbach - Twelve Tone Tales Vol. 1\06 Twelve Tone Tales II- Invention A, Paraphrasse, Invention B.wav
Длина предзазора 0:00:02.60
Пиковый уровень 85.3 %
Качество трека 99.9 %
CRC теста 1E08C727
CRC копии 1E08C727
Точное извлечение (достоверность 1) [02CC5228]
Копирование... OK
Трек 7
Имя файла N:\AUDIO CD\! NEW\Alexander von Schlippenbach - Twelve Tone Tales Vol. 1\07 Twelve Tone Tales II- Only Thing Left.wav
Длина предзазора 0:00:01.52
Пиковый уровень 91.2 %
Качество трека 100.0 %
CRC теста 8B3C9475
CRC копии 8B3C9475
Точное извлечение (достоверность 1) [CCF8FF32]
Копирование... OK
Трек 8
Имя файла N:\AUDIO CD\! NEW\Alexander von Schlippenbach - Twelve Tone Tales Vol. 1\08 Twelve Tone Tales II- Meo.wav
Длина предзазора 0:00:02.58
Пиковый уровень 93.9 %
Качество трека 100.0 %
CRC теста 9FDF90D3
CRC копии 9FDF90D3
Точное извлечение (достоверность 1) [9EDC3C4A]
Копирование... OK
Трек 9
Имя файла N:\AUDIO CD\! NEW\Alexander von Schlippenbach - Twelve Tone Tales Vol. 1\09 Twelve Tone Tales II- LOK 03.wav
Длина предзазора 0:00:01.26
Пиковый уровень 85.5 %
Качество трека 100.0 %
CRC теста D62D7871
CRC копии D62D7871
Точное извлечение (достоверность 1) [DCCEF903]
Копирование... OK
Все треки извлечены точно
Ошибок не произошло
Конец отчёта
 
Отчёт EAC Vol.2
Exact Audio Copy V0.99 prebeta 4 from 23. January 2008
Отчёт EAC об извлечении, выполненном 13. ноября 2008, 14:55
Alexander von Schlippenbach / Twelve Tone Tales Vol. 2
Дисковод: PLEXTOR DVD-ROM PX-130A Adapter: 0 ID: 0
Режим чтения : Достоверность
Использование точного потока : Да
Отключение кэша аудио : Да
Использование указателей C2 : Нет
Коррекция смещения при чтении : 738
Способность читать области Lead-in и Lead-out : Нет
Заполнение пропущенных сэмплов тишиной : Да
Удаление блоков с тишиной в начале и конце : Нет
При вычислениях CRC использовались нулевые сэмплы : Да
Интерфейс : Установленный внешний ASPI-интерфейс
Обработка зазоров : Добавлено к предыдущему треку
Выходной формат : Пользовательский кодировщик
Выбранный битрейт : 768 kBit/s
Качество : Высокий
Добавление ID3-тэга : Нет
Утилита сжатия : C:\Program Files\Exact Audio Copy\Flac\flac.exe
Дополнительные параметры : -V -8 -T "artist=%a" -T "title=%t" -T "album=%g" -T "date=%y" -T "tracknumber=%n" -T "genre=%m" %s
TOC извлечённого CD
Трек | Старт | Длительность | Начальный сектор | Конечный сектор
---------------------------------------------------------------------
1 | 0:00.00 | 5:21.53 | 0 | 24127
2 | 5:21.53 | 3:46.15 | 24128 | 41092
3 | 9:07.68 | 9:32.72 | 41093 | 84064
4 | 18:40.65 | 1:15.16 | 84065 | 89705
5 | 19:56.06 | 5:09.36 | 89706 | 112916
6 | 25:05.42 | 8:20.62 | 112917 | 150478
7 | 33:26.29 | 5:22.47 | 150479 | 174675
8 | 38:49.01 | 7:38.36 | 174676 | 209061
9 | 46:27.37 | 3:56.41 | 209062 | 226802
10 | 50:24.03 | 3:58.59 | 226803 | 244711
11 | 54:22.62 | 3:03.52 | 244712 | 258488
12 | 57:26.39 | 5:02.38 | 258489 | 281176
13 | 62:29.02 | 4:23.18 | 281177 | 300919
Трек 1
Имя файла N:\AUDIO CD\! NEW\Alexander von Schlippenbach - Twelve Tone Tales Vol. 2\01 Twelve Tone Tales III- Invention A, Paraphrase, Invention B.wav
Длина предзазора 0:00:02.00
Пиковый уровень 79.2 %
Качество трека 100.0 %
CRC теста 063C3564
CRC копии 063C3564
Трек не обнаружен в базе AccurateRip
Копирование... OK
Трек 2
Имя файла N:\AUDIO CD\! NEW\Alexander von Schlippenbach - Twelve Tone Tales Vol. 2\02 Twelve Tone Tales III- Bishop.wav
Длина предзазора 0:00:02.35
Пиковый уровень 84.2 %
Качество трека 100.0 %
CRC теста 793FF1E2
CRC копии 793FF1E2
Трек не обнаружен в базе AccurateRip
Копирование... OK
Трек 3
Имя файла N:\AUDIO CD\! NEW\Alexander von Schlippenbach - Twelve Tone Tales Vol. 2\03 Twelve Tone Tales III- Allegorese.wav
Длина предзазора 0:00:03.32
Пиковый уровень 91.8 %
Качество трека 100.0 %
CRC теста 81B8635C
CRC копии 81B8635C
Трек не обнаружен в базе AccurateRip
Копирование... OK
Трек 4
Имя файла N:\AUDIO CD\! NEW\Alexander von Schlippenbach - Twelve Tone Tales Vol. 2\04 Twelve Tone Tales III- Wildcat's Proper Hit (AKI).wav
Длина предзазора 0:00:01.13
Пиковый уровень 89.0 %
Качество трека 100.0 %
CRC теста 59C42915
CRC копии 59C42915
Трек не обнаружен в базе AccurateRip
Копирование... OK
Трек 5
Имя файла N:\AUDIO CD\! NEW\Alexander von Schlippenbach - Twelve Tone Tales Vol. 2\05 Twelve Tone Tales III- Born Potty.wav
Длина предзазора 0:00:02.55
Пиковый уровень 88.4 %
Качество трека 99.9 %
CRC теста B675DD67
CRC копии B675DD67
Трек не обнаружен в базе AccurateRip
Копирование... OK
Трек 6
Имя файла N:\AUDIO CD\! NEW\Alexander von Schlippenbach - Twelve Tone Tales Vol. 2\06 Twelve Tone Tales III- All Jazz Is Free.wav
Длина предзазора 0:00:02.33
Пиковый уровень 84.8 %
Качество трека 100.0 %
CRC теста CE528A07
CRC копии CE528A07
Трек не обнаружен в базе AccurateRip
Копирование... OK
Трек 7
Имя файла N:\AUDIO CD\! NEW\Alexander von Schlippenbach - Twelve Tone Tales Vol. 2\07 Twelve Tone Tales IV- Invention A, Paraphrase, Invention B.wav
Длина предзазора 0:00:03.73
Пиковый уровень 86.1 %
Качество трека 100.0 %
CRC теста 7E019A00
CRC копии 7E019A00
Трек не обнаружен в базе AccurateRip
Копирование... OK
Трек 8
Имя файла N:\AUDIO CD\! NEW\Alexander von Schlippenbach - Twelve Tone Tales Vol. 2\08 Twelve Tone Tales IV- Off Your Coat Hassaan.wav
Длина предзазора 0:00:03.03
Пиковый уровень 91.0 %
Качество трека 100.0 %
CRC теста 6E987D12
CRC копии 6E987D12
Трек не обнаружен в базе AccurateRip
Копирование... OK
Трек 9
Имя файла N:\AUDIO CD\! NEW\Alexander von Schlippenbach - Twelve Tone Tales Vol. 2\09 Twelve Tone Tales IV- Les.wav
Длина предзазора 0:00:03.45
Пиковый уровень 80.8 %
Качество трека 100.0 %
CRC теста 80CEE50A
CRC копии 80CEE50A
Трек не обнаружен в базе AccurateRip
Копирование... OK
Трек 10
Имя файла N:\AUDIO CD\! NEW\Alexander von Schlippenbach - Twelve Tone Tales Vol. 2\10 Twelve Tone Tales IV- Something Sweet, Something Tender.wav
Длина предзазора 0:00:02.38
Пиковый уровень 86.6 %
Качество трека 100.0 %
CRC теста 2D2D6D39
CRC копии 2D2D6D39
Трек не обнаружен в базе AccurateRip
Копирование... OK
Трек 11
Имя файла N:\AUDIO CD\! NEW\Alexander von Schlippenbach - Twelve Tone Tales Vol. 2\11 Twelve Tone Tales IV- Out There.wav
Длина предзазора 0:00:01.33
Пиковый уровень 76.7 %
Качество трека 100.0 %
CRC теста F62C099F
CRC копии F62C099F
Трек не обнаружен в базе AccurateRip
Копирование... OK
Трек 12
Имя файла N:\AUDIO CD\! NEW\Alexander von Schlippenbach - Twelve Tone Tales Vol. 2\12 Twelve Tone Tales IV- All The Things You Are.wav
Длина предзазора 0:00:02.38
Пиковый уровень 85.0 %
Качество трека 99.9 %
CRC теста 161C47DC
CRC копии 161C47DC
Трек не обнаружен в базе AccurateRip
Копирование... OK
Трек 13
Имя файла N:\AUDIO CD\! NEW\Alexander von Schlippenbach - Twelve Tone Tales Vol. 2\13 Twelve Tone Tales IV- Trinkle Tinkle.wav
Длина предзазора 0:00:01.73
Пиковый уровень 83.3 %
Качество трека 100.0 %
CRC теста 5A9EF528
CRC копии 5A9EF528
Трек не обнаружен в базе AccurateRip
Копирование... OK
Ни одного трека нет в базе AccurateRip
Ошибок не произошло
Конец отчёта
Пару слов об альбоме можно прочитать на офсайте Intakt Records: http://www.intaktrec.ch/115-a.htm
И подробный обзор на "Всё о Джазе": http://www.allaboutjazz.com/php/article.php?id=28928
Приватный:
Нет (DHT включён)
Размер:
535.05 Мб (561,037,450 байт) » файлов: 26
Участники:
0 раздают, 0 качают (0 участников всего)
Внешние участники:
1 раздают, 0 качают (1 участников всего) [ Обновить ]
No seeders - write a personal message to user M0p94ok. Нет сидеров - пишите личное сообщение пользователю M0p94ok.
05:18
89
Нет комментариев. Ваш будет первым!