Поиск

(Jazz, FreeJazz,Avant-Garde) Michel Lambert "Le Passant" - 2005, APE (tracks+.cue), lossless

(Jazz, FreeJazz,Avant-Garde) Michel Lambert "Le Passant" - 2005, APE (tracks+.cue), lossless
Треклист:
Michel Lambert "Le Passant"
Жанр: Jazz, FreeJazz,Avant-Garde
Год выпуска диска: 2005
Производитель диска: Rant (Canada)
Аудио кодек: APE
Тип рипа: tracks+.cue
Битрейт аудио: lossless
Продолжительность: 51'35
Трэклист:
01- Le Miroir De La Verite
02- L'Eternel Errant
03- Le Labyrinthe Du Remords
04- Le Choc Spirituel
05- Le Pelerinage De L'Humanite
06- Runnibg In The Cave
07- Quib
08- L'Isolement Des Lignes
09- Faux-Semblant
10- Ruffians, Riffraff And Ruffs
11- Passagers Perdus
12- Cue 9-3, Rappel Du Passant
Доп. информация: Michel Lambert: drums, chains on tin branch, bass drum, snare drum, tam tam, electric drum, maïkotron
Dominic Duval: bass (1-6,7,11)
Ellery Eskelin: tenor saxophone (1-6,8,11,12)
Malcolm Goldstein: violin (1-6,7,9,11)
Orchestra: (1-5,11,12)--Dave Martin: conductor, trombone (11); Ramsey Husser: violin; Brian Bacon: viola; Gary Russell: cello; François Richard: flute; Mathieu Harei: bassoon; Jocelyn Veilleux: french horn; Alain Cazes: tuba; Caroline Lizote: harp; Bob Slapcoff: vibes, trumpet
 
скрытый текст
EAC extraction logfile from 14. October 2007, 13:32 for CD
Michel Lambert / Le Passant
Used drive : HL-DT-STDVDRAM GSA-4167B Adapter: 1 ID: 0
Read mode : Secure with NO C2, accurate stream, disable cache
Read offset correction : 667
Overread into Lead-In and Lead-Out : No
Used output format : Internal WAV Routines
44.100 Hz; 16 Bit; Stereo
Other options :
Fill up missing offset samples with silence : Yes
Delete leading and trailing silent blocks : No
Native Win32 interface for Win NT & 2000
Track 1
Filename E:\Le Passant\01 Le Miroir De La Verite.wav
Pre-gap length 0:00:02.00
Peak level 100.0 %
Track quality 100.0 %
Test CRC E707E064
Copy CRC E707E064
Copy OK
Track 2
Filename E:\Le Passant\02 L'Eternel Errant.wav
Pre-gap length 0:00:03.61
Peak level 100.0 %
Track quality 100.0 %
Test CRC 84D545B0
Copy CRC 84D545B0
Copy OK
Track 3
Filename E:\Le Passant\03 Le Labyrinthe Du Remords.wav
Pre-gap length 0:00:03.26
Peak level 100.0 %
Track quality 100.0 %
Test CRC 4B968329
Copy CRC 4B968329
Copy OK
Track 4
Filename E:\Le Passant\04 Le Choc Spirituel.wav
Pre-gap length 0:00:03.53
Peak level 100.0 %
Track quality 99.9 %
Test CRC B93D70B5
Copy CRC B93D70B5
Copy OK
Track 5
Filename E:\Le Passant\05 Le Pelerinage De L'Humanite.wav
Pre-gap length 0:00:04.09
Peak level 100.0 %
Track quality 100.0 %
Test CRC C9B947C6
Copy CRC C9B947C6
Copy OK
Track 6
Filename E:\Le Passant\06 Runnibg In The Cave.wav
Pre-gap length 0:00:03.22
Peak level 74.4 %
Track quality 100.0 %
Test CRC DF9821DA
Copy CRC DF9821DA
Copy OK
Track 7
Filename E:\Le Passant\07 Quib.wav
Pre-gap length 0:00:03.57
Peak level 100.0 %
Track quality 100.0 %
Test CRC 028705B3
Copy CRC 028705B3
Copy OK
Track 8
Filename E:\Le Passant\08 L'Isolement Des Lignes.wav
Pre-gap length 0:00:03.65
Peak level 100.0 %
Track quality 100.0 %
Test CRC 51655C8B
Copy CRC 51655C8B
Copy OK
Track 9
Filename E:\Le Passant\09 Faux-Semblant.wav
Pre-gap length 0:00:03.26
Peak level 87.1 %
Track quality 100.0 %
Test CRC 77271E61
Copy CRC 77271E61
Copy OK
Track 10
Filename E:\Le Passant\10 Ruffians, Riffraff And Ruffs.wav
Pre-gap length 0:00:03.61
Peak level 99.9 %
Track quality 100.0 %
Test CRC 825D3F72
Copy CRC 825D3F72
Copy OK
Track 11
Filename E:\Le Passant\11 Passagers Perdus.wav
Pre-gap length 0:00:03.57
Peak level 100.0 %
Track quality 100.0 %
Test CRC 9D1E94E2
Copy CRC 9D1E94E2
Copy OK
Track 12
Filename E:\Le Passant\12 Cue 9-3, Rappel Du Passant.wav
Pre-gap length 0:00:03.53
Peak level 100.0 %
Track quality 100.0 %
Test CRC A0AF3BDE
Copy CRC A0AF3BDE
Copy OK
No errors occured
End of status report
Приватный:
Нет (DHT включён)
Размер:
303.16 Мб (317,886,479 байт) » файлов: 18
Участники:
0 раздают, 0 качают (0 участников всего)
Внешние участники:
1 раздают, 0 качают (1 участников всего) [ Обновить ]
No seeders - write a personal message to user M0p94ok. Нет сидеров - пишите личное сообщение пользователю M0p94ok.
05:19
52
Нет комментариев. Ваш будет первым!