Поиск

(FreeJazz, Avant-garde) Trio X (Joe McPhee, Dominic Duval, Jay Rosen) - "The Watermelon Suite" - 1999, APE (image+.cue), lossless

(FreeJazz, Avant-garde) Trio X (Joe McPhee, Dominic Duval, Jay Rosen) - "The Watermelon Suite" - 1999, APE (image+.cue), lossless
Треклист:
Trio X (Joe McPhee, Dominic Duval, Jay Rosen) - "The Watermelon Suite"

Жанр: FreeJazz, Avant-garde
Год выпуска диска: 1999
Производитель диска: СIMP (USA)
Аудио кодек: APE
Тип рипа: image+.cue
Битрейт аудио: lossless
Продолжительность: 73'05
Трэклист:
01-Points
02-The Watermelon Suite part 1 - The Whole
03-The Watermelon Suite part 2 - The Rind
04-The Watermelon Suite part 3 - The Meat
05-The Watermelon Suite part 4 - The Seeds
06-Wecotdo part 1
07-Wecotdo part 2
08-Soundboard Safari
09-Solero (to Glenn Spearman)
10-A Ballad in Their Own Way
11-Putter Piece
12-My Funny Valentine
Доп. информация:
Joe McPhee (Soprano Saxophone)
Dominic Duval (Bass)
Jay Rosen (Drums)
 
скрытый текст
Exact Audio Copy V0.99 prebeta 4 from 23. January 2008
EAC extraction logfile from 14. November 2008, 9:28
trio - X (joe mcphee, dominic duval, jay rosen) / the watermelon suite
Used drive : Optiarc DVD RW AD-7173A Adapter: 1 ID: 0
Read mode : Secure
Utilize accurate stream : Yes
Defeat audio cache : Yes
Make use of C2 pointers : No
Read offset correction : 48
Overread into Lead-In and Lead-Out : No
Fill up missing offset samples with silence : Yes
Delete leading and trailing silent blocks : No
Null samples used in CRC calculations : Yes
Used interface : Native Win32 interface for Win NT & 2000
Used output format : Internal WAV Routines
Sample format : 44.100 Hz; 16 Bit; Stereo
TOC of the extracted CD
Track | Start | Length | Start sector | End sector
---------------------------------------------------------
1 | 0:00.00 | 7:21.64 | 0 | 33138
2 | 7:21.64 | 4:41.50 | 33139 | 54263
3 | 12:03.39 | 3:11.70 | 54264 | 68658
4 | 15:15.34 | 7:39.36 | 68659 | 103119
5 | 22:54.70 | 2:28.12 | 103120 | 114231
6 | 25:23.07 | 5:50.43 | 114232 | 140524
7 | 31:13.50 | 3:36.24 | 140525 | 156748
8 | 34:49.74 | 4:47.46 | 156749 | 178319
9 | 39:37.45 | 6:09.27 | 178320 | 206021
10 | 45:46.72 | 6:08.57 | 206022 | 233678
11 | 51:55.54 | 11:26.32 | 233679 | 285160
12 | 63:22.11 | 9:41.00 | 285161 | 328735
Range status and errors
Selected range
Filename I:\APE\LOSSLESS\Trio X - The Watermelon Suite\trio - X (joe mcphee, dominic duval, jay rosen) - the watermelon suite.wav
Peak level 100.0 %
Range quality 100.0 %
Copy CRC DD9DE7B9
Copy OK
No errors occurred
End of status report
Приватный:
Нет (DHT включён)
Размер:
292.34 Мб (306,539,824 байт) » файлов: 7
Участники:
0 раздают, 0 качают (0 участников всего)
Внешние участники:
2 раздают, 1 качают (3 участников всего) [ Обновить ]
No seeders - write a personal message to user M0p94ok. Нет сидеров - пишите личное сообщение пользователю M0p94ok.
05:20
68
Нет комментариев. Ваш будет первым!