Поиск

(FreeJazz, Avant-garde) William Parker - "In Order To Survive" - 1995, APE (image+.cue), lossless

(FreeJazz, Avant-garde) William Parker - "In Order To Survive" - 1995, APE (image+.cue), lossless
Треклист:
William Parker - "In Order To Survive"
Жанр: FreeJazz, Avant-garde
Год выпуска диска: 1995
Производитель диска: Black Saint (Italy)
Аудио кодек: APE
Тип рипа: image+.cue
Битрейт аудио: lossless
Продолжительность: 72'05
Трэклист:
01-Testimony of NO FUTURE
02-ANAST IN CRISIS Mouth Full Of Fresh Cut Flowers
03-Testimony of THE STIR POT
04-THE SQUARE SUN
Доп. информация:
William Parker-bass
Gracham Moncur III-trombone
Rob Brown-alto sax
Lewis Barnes-trumpet
Cooper Moore-piano
Denis Charles-drums
Jackson Krall-percussion
 
скрытый текст
Exact Audio Copy V0.99 prebeta 4 from 23. January 2008
Отчёт EAC об извлечении, выполненном 14. ноября 2008, 17:58
William Parker / In Order To Survive
Дисковод: Optiarc DVD RW AD-7173A Adapter: 1 ID: 0
Режим чтения : Достоверность
Использование точного потока : Да
Отключение кэша аудио : Да
Использование указателей C2 : Нет
Коррекция смещения при чтении : 48
Способность читать области Lead-in и Lead-out : Нет
Заполнение пропущенных сэмплов тишиной : Да
Удаление блоков с тишиной в начале и конце : Нет
При вычислениях CRC использовались нулевые сэмплы : Да
Интерфейс : Встроенный Win32-интерфейс для Win NT/2000
Выходной формат : Внутренние WAV-операции
Формат сэмплов : 44.100 Гц; 16 бит; стерео
TOC извлечённого CD
Трек | Старт | Длительность | Начальный сектор | Конечный сектор
---------------------------------------------------------------------
1 | 0:00.33 | 38:47.00 | 33 | 174557
2 | 38:47.33 | 6:55.25 | 174558 | 205707
3 | 45:42.58 | 20:07.50 | 205708 | 296282
4 | 65:50.33 | 6:13.00 | 296283 | 324257
Характеристики диапазона извлечения и сообщения об ошибках
Выбранный диапазон
Имя файла I:\APE\LOSSLESS\William Parker - In Order To Survive\William Parker - In Order To Survive.wav
Пиковый уровень 99.5 %
Качество диапазона 100.0 %
CRC копии FE9B6BA0
Копирование... OK
Приватный:
Нет (DHT включён)
Размер:
401.26 Мб (420,747,675 байт) » файлов: 10
Участники:
0 раздают, 0 качают (0 участников всего)
Внешние участники:
2 раздают, 1 качают (3 участников всего) [ Обновить ]
No seeders - write a personal message to user M0p94ok. Нет сидеров - пишите личное сообщение пользователю M0p94ok.
05:20
65
Нет комментариев. Ваш будет первым!