Поиск

(FreeJazz, Avant-garde) Michael Bisio & Joe McPhee - Zebulon - 1999, APE (image+.cue), lossless

(FreeJazz, Avant-garde) Michael Bisio & Joe McPhee - Zebulon - 1999, APE (image+.cue), lossless
Треклист:
Michael Bisio & Joe McPhee - Zebulon
Жанр: FreeJazz, Avant-garde
Год выпуска диска: 1999
Производитель диска: CIMP (USA)
Аудио кодек: APE
Тип рипа: image+.cue
Битрейт аудио: lossless
Продолжительность: 68'45
Трэклист:
01-Makeover Makeover
02-Kind of a Ballad
03-Duosalbosity 2
04-Something Different
05-Gracie's Amazing
06-Undulation
07-Denis&Charles
Доп. информация:
Michael Bisio (Bass)
Joe McPhee (Alto Saxophone)
 
скрытый текст
Exact Audio Copy V0.99 prebeta 4 from 23. January 2008
Отчёт EAC об извлечении, выполненном 14. ноября 2008, 19:34
Michael Bisio & Joe McPhee / Zebulon
Дисковод: Optiarc DVD RW AD-7173A Adapter: 1 ID: 0
Режим чтения : Достоверность
Использование точного потока : Да
Отключение кэша аудио : Да
Использование указателей C2 : Нет
Коррекция смещения при чтении : 48
Способность читать области Lead-in и Lead-out : Нет
Заполнение пропущенных сэмплов тишиной : Да
Удаление блоков с тишиной в начале и конце : Нет
При вычислениях CRC использовались нулевые сэмплы : Да
Интерфейс : Встроенный Win32-интерфейс для Win NT/2000
Выходной формат : Внутренние WAV-операции
Формат сэмплов : 44.100 Гц; 16 бит; стерео
TOC извлечённого CD
Трек | Старт | Длительность | Начальный сектор | Конечный сектор
---------------------------------------------------------------------
1 | 0:00.00 | 13:15.62 | 0 | 59686
2 | 13:15.62 | 8:58.38 | 59687 | 100074
3 | 22:14.25 | 3:58.47 | 100075 | 117971
4 | 26:12.72 | 14:28.12 | 117972 | 183083
5 | 40:41.09 | 17:20.62 | 183084 | 261145
6 | 58:01.71 | 6:46.06 | 261146 | 291601
7 | 64:48.02 | 3:55.29 | 291602 | 309255
Характеристики диапазона извлечения и сообщения об ошибках
Выбранный диапазон
Имя файла I:\APE\LOSSLESS\Michael Bisio & Joe McPhee - Zebulon\Michael Bisio & Joe McPhee - Zebulon.wav
Пиковый уровень 98.4 %
Качество диапазона 100.0 %
CRC копии 997B55B4
Копирование... OK
Ошибок не произошло
Конец отчёта
Приватный:
Нет (DHT включён)
Размер:
222.61 Мб (233,419,266 байт) » файлов: 6
Участники:
0 раздают, 0 качают (0 участников всего)
Внешние участники:
3 раздают, 1 качают (4 участников всего) [ Обновить ]
No seeders - write a personal message to user M0p94ok. Нет сидеров - пишите личное сообщение пользователю M0p94ok.
05:21
56
Нет комментариев. Ваш будет первым!