Поиск

(Jazz) World Saxophone Quartet - "Four Now" - 1996, APE (image+.cue), lossless

(Jazz) World Saxophone Quartet - "Four Now" - 1996, APE (image+.cue), lossless
Треклист:
World Saxophone Quartet - "Four Now"
Жанр: Jazz
Год выпуска диска: 1996
Производитель диска: Justin Time (Canada)
Аудио кодек: APE
Тип рипа: image+.cue
Битрейт аудио: lossless
Продолжительность: 54'27
Трэклист:
1.Dou Dou N'Daiye Rose
2.Dakar Darkness
3.Suga
4.Colors
5.For Now
6.What a Dream
7.Sangara
Доп. информация:
David Murray-tenor sax,bass clarinet;
Hamiet Bluiett-baritone sax;
Oliver Lake-alto sax;
John Pursell-saxello,tenor sax;
Chief Bey,Mor Thiam,Mar Guege-african drums
 
скрытый текст
Exact Audio Copy V0.99 prebeta 4 from 23. January 2008
Отчёт EAC об извлечении, выполненном 15. ноября 2008, 9:50
World Saxophone Quartet / Four Now
Дисковод: Optiarc DVD RW AD-7173A Adapter: 1 ID: 0
Режим чтения : Достоверность
Использование точного потока : Да
Отключение кэша аудио : Да
Использование указателей C2 : Нет
Коррекция смещения при чтении : 48
Способность читать области Lead-in и Lead-out : Нет
Заполнение пропущенных сэмплов тишиной : Да
Удаление блоков с тишиной в начале и конце : Нет
При вычислениях CRC использовались нулевые сэмплы : Да
Интерфейс : Встроенный Win32-интерфейс для Win NT/2000
Выходной формат : Внутренние WAV-операции
Формат сэмплов : 44.100 Гц; 16 бит; стерео
TOC извлечённого CD
Трек | Старт | Длительность | Начальный сектор | Конечный сектор
---------------------------------------------------------------------
1 | 0:00.00 | 8:42.40 | 0 | 39189
2 | 8:42.40 | 8:28.40 | 39190 | 77329
3 | 17:11.05 | 6:50.55 | 77330 | 108134
4 | 24:01.60 | 6:57.30 | 108135 | 139439
5 | 30:59.15 | 5:24.05 | 139440 | 163744
6 | 36:23.20 | 7:21.65 | 163745 | 196884
7 | 43:45.10 | 10:40.55 | 196885 | 244939
Характеристики диапазона извлечения и сообщения об ошибках
Выбранный диапазон
Имя файла I:\APE\LOSSLESS\World Saxophone Quartet-Four Now\World Saxophone Quartet - Four Now.wav
Пиковый уровень 100.0 %
Качество диапазона 99.9 %
CRC копии EADAEFC7
Копирование... OK
Ошибок не произошло
Конец отчёта
Приватный:
Нет (DHT включён)
Размер:
292.01 Мб (306,195,627 байт) » файлов: 6
Участники:
0 раздают, 0 качают (0 участников всего)
Внешние участники:
2 раздают, 1 качают (3 участников всего) [ Обновить ]
No seeders - write a personal message to user M0p94ok. Нет сидеров - пишите личное сообщение пользователю M0p94ok.
05:22
54
Нет комментариев. Ваш будет первым!