Поиск

(Jazz) World Saxophone Quartet - Steppin' With - 1979, APE (image+.cue), lossless

(Jazz) World Saxophone Quartet - Steppin' With - 1979, APE (image+.cue), lossless
Треклист:
World Saxophone Quartet - Steppin' With

Жанр: Jazz
Год выпуска диска: 1979
Производитель диска: Black Saint (Italy)
Аудио кодек: APE
Тип рипа: image+.cue
Битрейт аудио: lossless
Трэклист:
1. Steppin'
2. Ra-Ta-Ta
3. Dream Scheme
4. PO in Cairo
5. Hearts · R and B
Доп. информация:
Hamiet Bluiett, baritone saxophone, flute
Julius Hemphill, alto saxophone, soprano saxophone
Oliver Lake, alto saxophone, soprano saxophone
David Murray, tenor saxophone, bass clarinet
 
скрытый текст
Exact Audio Copy V0.99 prebeta 4 from 23. January 2008
Отчёт EAC об извлечении, выполненном 15. ноября 2008, 13:47
- / -
Дисковод: Optiarc DVD RW AD-7173A Adapter: 1 ID: 0
Режим чтения : Достоверность
Использование точного потока : Да
Отключение кэша аудио : Да
Использование указателей C2 : Нет
Коррекция смещения при чтении : 48
Способность читать области Lead-in и Lead-out : Нет
Заполнение пропущенных сэмплов тишиной : Да
Удаление блоков с тишиной в начале и конце : Нет
При вычислениях CRC использовались нулевые сэмплы : Да
Интерфейс : Встроенный Win32-интерфейс для Win NT/2000
Выходной формат : Внутренние WAV-операции
Формат сэмплов : 44.100 Гц; 16 бит; стерео
TOC извлечённого CD
Трек | Старт | Длительность | Начальный сектор | Конечный сектор
---------------------------------------------------------------------
1 | 0:00.00 | 9:08.65 | 0 | 41164
2 | 9:08.65 | 5:28.48 | 41165 | 65812
3 | 14:37.38 | 7:20.22 | 65813 | 98834
4 | 21:57.60 | 10:49.65 | 98835 | 147574
5 | 32:47.50 | 3:03.23 | 147575 | 161322
6 | 35:50.73 | 8:39.17 | 161323 | 200264
Характеристики диапазона извлечения и сообщения об ошибках
Выбранный диапазон
Имя файла I:\APE\LOSSLESS\World Saxophone Quartet-Steppin' With\CDImage.wav
Пиковый уровень 92.2 %
Качество диапазона 100.0 %
CRC копии A78B0FD1
Копирование... OK
Ошибок не произошло
Конец отчёта
Приватный:
Нет (DHT включён)
Размер:
268.75 Мб (281,808,833 байт) » файлов: 6
Участники:
0 раздают, 0 качают (0 участников всего)
Внешние участники:
5 раздают, 1 качают (6 участников всего) [ Обновить ]
No seeders - write a personal message to user M0p94ok. Нет сидеров - пишите личное сообщение пользователю M0p94ok.
05:22
54
Нет комментариев. Ваш будет первым!