Поиск

(Modern Free / Avant-Garde) Atomic / School Days - Distil - 2008, FLAC (image+.cue), lossless

(Modern Free / Avant-Garde) Atomic / School Days - Distil - 2008, FLAC (image+.cue), lossless
Треклист:
Atomic / School Days - Distil
Жанр: Modern Free / Avant-Garde
Год выпуска диска: 2008
Производитель диска: USA (Okkadisk)
Аудио кодек: FLAC
Тип рипа: image+.cue
Битрейт аудио: lossless
Продолжительность: 1:56:34
Ken Vandermark reeds
Fredrik Ljungkvist reeds
Magnus Broo trumpet
Jeb Bishop trombone
Håvard Wiik piano
Kjell Nordeson vibraphone
Ingebrigt Håker Flaten double bass
Paal Nilssen-Love drums & percussion
Disc 1
Deadline
Irrational Ceremony
Visitors
Dark Easter

Disc 2
Andersonville
Fort Funston
Closing Stages
Ghosts and Spirits
Buñuel at the Coctail Party
Recorded live in Chicago at the Green Mill April 21 & 22, 2006
 
EAC Report (Disc 1)
Exact Audio Copy V0.99 prebeta 4 from 23. January 2008
EAC extraction logfile from 15. November 2008, 21:55
Atomic / School Days / Distil (Disc 1)
Used drive : TSSTcorpCD/DVDW SH-S182M Adapter: 2 ID: 0
Read mode : Secure
Utilize accurate stream : Yes
Defeat audio cache : Yes
Make use of C2 pointers : No
Read offset correction : 6
Overread into Lead-In and Lead-Out : No
Fill up missing offset samples with silence : Yes
Delete leading and trailing silent blocks : No
Null samples used in CRC calculations : Yes
Used interface : Installed external ASPI interface
Used output format : User Defined Encoder
Selected bitrate : 1024 kBit/s
Quality : High
Add ID3 tag : No
Command line compressor : C:\Program Files\Exact Audio Copy\FLAC\FLAC.EXE
Additional command line options : -6 -V -T "ARTIST=%a" -T "TITLE=%t" -T "ALBUM=%g" -T "DATE=%y" -T "TRACKNUMBER=%n" -T "GENRE=%m" -T "COMMENT=%e" %s -o %d
TOC of the extracted CD
Track | Start | Length | Start sector | End sector
---------------------------------------------------------
1 | 0:00.00 | 11:34.01 | 0 | 52050
2 | 11:34.01 | 17:34.74 | 52051 | 131174
3 | 29:09.00 | 10:03.37 | 131175 | 176436
4 | 39:12.37 | 12:43.15 | 176437 | 233676
Range status and errors
Selected range
Filename C:\z\Atomic School Days - Distil (Disc 1).wav
Peak level 96.5 %
Range quality 100.0 %
Test CRC F94D81EF
Copy CRC F94D81EF
Copy OK
No errors occurred
AccurateRip summary
Track 1 not present in database
Track 2 not present in database
Track 3 not present in database
Track 4 not present in database
None of the tracks are present in the AccurateRip database
End of status report
 
EAC Report (Disc 2)
Exact Audio Copy V0.99 prebeta 4 from 23. January 2008
EAC extraction logfile from 14. November 2008, 23:37
Atomic / School Days / Distil (Disc 2)
Used drive : TSSTcorpCD/DVDW SH-S182M Adapter: 2 ID: 0
Read mode : Secure
Utilize accurate stream : Yes
Defeat audio cache : Yes
Make use of C2 pointers : No
Read offset correction : 6
Overread into Lead-In and Lead-Out : No
Fill up missing offset samples with silence : Yes
Delete leading and trailing silent blocks : No
Null samples used in CRC calculations : Yes
Used interface : Installed external ASPI interface
Used output format : User Defined Encoder
Selected bitrate : 1024 kBit/s
Quality : High
Add ID3 tag : No
Command line compressor : C:\Program Files\Exact Audio Copy\FLAC\FLAC.EXE
Additional command line options : -6 -V -T "ARTIST=%a" -T "TITLE=%t" -T "ALBUM=%g" -T "DATE=%y" -T "TRACKNUMBER=%n" -T "GENRE=%m" -T "COMMENT=%e" %s -o %d
TOC of the extracted CD
Track | Start | Length | Start sector | End sector
---------------------------------------------------------
1 | 0:00.00 | 12:23.42 | 0 | 55766
2 | 12:23.42 | 12:32.48 | 55767 | 112214
3 | 24:56.15 | 6:58.49 | 112215 | 143613
4 | 31:54.64 | 17:37.37 | 143614 | 222925
5 | 49:32.26 | 15:07.22 | 222926 | 290972
Range status and errors
Selected range
Filename C:\z\Atomic School Days - Distil (Disc 2).wav
Peak level 96.5 %
Range quality 100.0 %
Test CRC 183C4D86
Copy CRC 183C4D86
Copy OK
No errors occurred
AccurateRip summary
Track 1 not present in database
Track 2 not present in database
Track 3 not present in database
Track 4 not present in database
Track 5 not present in database
None of the tracks are present in the AccurateRip database
End of status report
Приватный:
Нет (DHT включён)
Размер:
665.44 Мб (697,762,632 байт) » файлов: 9
Участники:
0 раздают, 0 качают (0 участников всего)
Внешние участники:
1 раздают, 0 качают (1 участников всего) [ Обновить ]
No seeders - write a personal message to user M0p94ok. Нет сидеров - пишите личное сообщение пользователю M0p94ok.
05:24
52
Нет комментариев. Ваш будет первым!