Поиск

(Avant-Garde) Anthony Braxton Quartet - The Coventry Concert - 2001, APE (image+.cue), lossless

(Avant-Garde) Anthony Braxton Quartet - The Coventry Concert - 2001, APE (image+.cue), lossless
Треклист:
Anthony Braxton Quartet - The Coventry Concert
Жанр: Avant-Garde
Год выпуска диска: 2001
Производитель диска: Germany-WestWind
Аудио кодек: APE
Тип рипа: image+.cue
Битрейт аудио: lossless
Продолжительность: 51:03
Трэклист:
1 Composition 124/ Braxton 11:03
2 Composition 88/ Braxton 16:31
3 Piano Solo and Composition 239/ Crispell 5:08
4 Composition 69 F/ Braxton 9:37
5 Composition 40 N/ Braxton 8:42
Anthony Braxton- Reeds
Marilyn Crispell- Piano
Mark Dresser- Bass
Gerry Hemingway- Drums
Доп. информация: На обложке почему-то 3 трека вместо 5 (1.Composition 124,2.Composition 88,3.Piano Solo and Composition 239)И бассист-Mark Helias...
Рип сделан собственноручно,ковры внутри.Оригинал из собрания Дмитрия М.(Одесса)
 
Отчёт EAC об извлечении, выполненном 11. ноября 2008, 18:28
Exact Audio Copy V0.99 prebeta 3 from 28. July 2007
Отчёт EAC об извлечении, выполненном 11. ноября 2008, 18:28
Anthony Braxton / The Coventry Concert
Дисковод: Optiarc DVD RW AD-7203A Adapter: 0 ID: 1
Режим чтения : Достоверность
Использование точного потока : Да
Отключение кэша аудио : Да
Использование указателей C2 : Нет
Коррекция смещения при чтении : 48
Способность читать области Lead-in и Lead-out : Нет
Заполнение пропущенных сэмплов тишиной : Да
Удаление блоков с тишиной в начале и конце : Нет
При вычислениях CRC использовались нулевые сэмплы : Да
Интерфейс : Установленный внешний ASPI-интерфейс
Выходной формат : Monkey's Audio Lossless Encoder v3.99 DLL
Формат сэмплов : Normal Lossless Compression
TOC извлечённого CD
Трек | Старт | Длительность | Начальный сектор | Конечный сектор
---------------------------------------------------------------------
1 | 0:00.00 | 8:44.20 | 0 | 39319
2 | 8:44.20 | 11:02.70 | 39320 | 89039
3 | 19:47.15 | 16:32.67 | 89040 | 163506
4 | 36:20.07 | 5:08.63 | 163507 | 186669
5 | 41:28.70 | 9:34.60 | 186670 | 229779
Характеристики диапазона извлечения и сообщения об ошибках
Выбранный диапазон
Имя файла C:\Documents and Settings\1\Рабочий стол\Anthony Braxton - The Coventry Concert.ape
Пиковый уровень 88.3 %
Качество диапазона 100.0 %
CRC теста 5519B80F
CRC копии 5519B80F
Копирование... OK
Ошибок не произошло
AccurateRip: сводка
Трек 1 нет в базе данных
Трек 2 нет в базе данных
Трек 3 нет в базе данных
Трек 4 нет в базе данных
Трек 5 нет в базе данных
Ни одного трека нет в базе AccurateRip
Конец отчёта
Приватный:
Нет (DHT включён)
Размер:
223.49 Мб (234,345,439 байт) » файлов: 9
Участники:
0 раздают, 0 качают (0 участников всего)
Внешние участники:
2 раздают, 1 качают (3 участников всего) [ Обновить ]
No seeders - write a personal message to user M0p94ok. Нет сидеров - пишите личное сообщение пользователю M0p94ok.
05:16
75
Нет комментариев. Ваш будет первым!