Поиск

(Avant-Garde, Free Jazz) Dave Holland Quartet (w. Anthony Braxton, Sam Rivers, Barry Altschul) - Conference Of The Birds - 1972, FLAC (tracks+.cue), lossless

(Avant-Garde, Free Jazz) Dave Holland Quartet (w. Anthony Braxton, Sam Rivers, Barry Altschul) - Conference Of The Birds - 1972, FLAC (tracks+.cue), lossless
Треклист:
Dave Holland Quartet - Conference Of The Birds
Жанр: Avant-Garde, Free Jazz
Год выпуска диска: 1972
Производитель диска: ECM
Аудио кодек: FLAC
Тип рипа: tracks+.cue
Битрейт аудио: lossless
Продолжительность: 39 минут 38 секунд
Трэклист:
1. Four Winds — 6:35
2. Q&A — 8:37
3. Conference Of The Birds — 4:42
4. Interception — 8:23
5. Now Here (Nowhere) — 4:36
6. See-Saw — 6:40
Доп. информация:
 
Отчет EAC
Exact Audio Copy V0.99 prebeta 4 from 23. January 2008
Отчёт EAC об извлечении, выполненном 12. ноября 2008, 20:09
Dave Holland Quartet / Conference Of The Birds
Дисковод: PLEXTOR DVD-ROM PX-130A Adapter: 0 ID: 0
Режим чтения : Достоверность
Использование точного потока : Да
Отключение кэша аудио : Да
Использование указателей C2 : Нет
Коррекция смещения при чтении : 738
Способность читать области Lead-in и Lead-out : Нет
Заполнение пропущенных сэмплов тишиной : Да
Удаление блоков с тишиной в начале и конце : Нет
При вычислениях CRC использовались нулевые сэмплы : Да
Интерфейс : Установленный внешний ASPI-интерфейс
Обработка зазоров : Добавлено к предыдущему треку
Выходной формат : Пользовательский кодировщик
Выбранный битрейт : 768 kBit/s
Качество : Высокий
Добавление ID3-тэга : Нет
Утилита сжатия : C:\Program Files\Exact Audio Copy\Flac\flac.exe
Дополнительные параметры : -V -8 -T "artist=%a" -T "title=%t" -T "album=%g" -T "date=%y" -T "tracknumber=%n" -T "genre=%m" %s
TOC извлечённого CD
Трек | Старт | Длительность | Начальный сектор | Конечный сектор
---------------------------------------------------------------------
1 | 0:00.33 | 6:35.45 | 33 | 29702
2 | 6:36.03 | 8:37.47 | 29703 | 68524
3 | 15:13.50 | 4:42.43 | 68525 | 89717
4 | 19:56.18 | 8:23.45 | 89718 | 127487
5 | 28:19.63 | 4:36.25 | 127488 | 148212
6 | 32:56.13 | 6:40.50 | 148213 | 178262
Трек 1
Имя файла N:\AUDIO CD\! NEW\Dave Holland Quartet - Conference Of The Birds\01 Four Winds.wav
Длина предзазора 0:00:02.33
Пиковый уровень 81.8 %
Качество трека 100.0 %
CRC теста B0F72D35
CRC копии B0F72D35
Точность не определена (достоверность 3) [914FDA59], AccurateRip вернул [1F6C4795]
Копирование... OK
Трек 2
Имя файла N:\AUDIO CD\! NEW\Dave Holland Quartet - Conference Of The Birds\02 Q & A.wav
Длина предзазора 0:00:03.38
Пиковый уровень 62.2 %
Качество трека 100.0 %
CRC теста 621CB391
CRC копии 621CB391
Точность не определена (достоверность 3) [FFF19A6E], AccurateRip вернул [A5C20D51]
Копирование... OK
Трек 3
Имя файла N:\AUDIO CD\! NEW\Dave Holland Quartet - Conference Of The Birds\03 Conference of the Birds.wav
Длина предзазора 0:00:03.30
Пиковый уровень 56.9 %
Качество трека 99.9 %
CRC теста 48A0AF5A
CRC копии 48A0AF5A
Точность не определена (достоверность 3) [A4ADFA47], AccurateRip вернул [E6EAD2E9]
Копирование... OK
Трек 4
Имя файла N:\AUDIO CD\! NEW\Dave Holland Quartet - Conference Of The Birds\04 Interception.wav
Длина предзазора 0:00:08.13
Пиковый уровень 74.2 %
Качество трека 100.0 %
CRC теста 61F54F3F
CRC копии 61F54F3F
Точность не определена (достоверность 3) [088C911A], AccurateRip вернул [DA0E42B4]
Копирование... OK
Трек 5
Имя файла N:\AUDIO CD\! NEW\Dave Holland Quartet - Conference Of The Birds\05 Now Here (Nowhere).wav
Длина предзазора 0:00:02.48
Пиковый уровень 62.1 %
Качество трека 100.0 %
CRC теста 80C6EA3B
CRC копии 80C6EA3B
Точность не определена (достоверность 3) [5E01670A], AccurateRip вернул [A5789D7D]
Копирование... OK
Трек 6
Имя файла N:\AUDIO CD\! NEW\Dave Holland Quartet - Conference Of The Birds\06 See-Saw.wav
Длина предзазора 0:00:03.45
Пиковый уровень 71.2 %
Качество трека 100.0 %
CRC теста B44119DF
CRC копии B44119DF
Точность не определена (достоверность 3) [F0BD9B80], AccurateRip вернул [4EE23CCA]
Копирование... OK
Ни один трек не прошёл проверки на точность
В вашей базе может быть иной вариант штамповки диска
Ошибок не произошло
Конец отчёта
 
Интересная информация на буклете
"While living in London I had an apartment with a small garden. During the summer around 4 or 5 o'clock in the morning, just as the day began, birds would gather here one by one and sing together, each declaring its freedom in song. It is my wish to share this same spirit with other musicians and communicate it to the people." Dave Holland.
А этот диск из разряда Highly Recommended! Переслушан уже десятки раз! Мечтаю найти на виниле. Думаю, будет интересен не только любителям авангарда и фри-джаза! Просто потрясающий альбом, слушающийся на одном дыхании! Вроде как входит в десятку самых удачных фри-джазовых альбомов. По крайней мере уж точно этот диск - своего рода классика!
Обзоры:
http://www.allmusic.com/cg/amg.dll?p=amg&sql=10:fxfixq9gldte
http://www.amazon.com/review/product/B0000031OW/ref=dp_top_cm_cr_acr_txt?%5Fencod...showViewpoints=1
http://www.progreviews.com/reviews/display.php?rev=dhq-cotb
Приватный:
Нет (DHT включён)
Размер:
231.13 Мб (242,352,563 байт) » файлов: 8
Участники:
0 раздают, 0 качают (0 участников всего)
Внешние участники:
5 раздают, 2 качают (7 участников всего) [ Обновить ]
No seeders - write a personal message to user M0p94ok. Нет сидеров - пишите личное сообщение пользователю M0p94ok.
05:16
90
Нет комментариев. Ваш будет первым!