Поиск

(Avant-Garde) Alexander Von Schlippenbach w. Sunny Murray - Smoke - 1989, FLAC (tracks+.cue), lossless

Треклист:
Alexander Von Schlippenbach w. Sunny Murray - Smoke
Жанр: Avant-Garde
Год выпуска диска: 1989
Производитель диска: FMP
Аудио кодек: FLAC
Тип рипа: tracks+.cue
Продолжительность: 1 час 20 минут 38 секунд
Трэклист:
1 Smoke (Schlippenbach/Murray) - 9:55
2 Down the mission (Schlippenbach) - 19:17
3 Trinkle tinkle (Monk) - 3:09
4 Akiki ma non troppo (Schlippenbach) - 7:22
5 Angel voice (Murray) - 5:31
6 Khumbu (Schlippenbach) - 7:30
7 Top dogs attack (Murray) - 12:36
8 The shadow of the man (Murray) - 5:19
Доп. информация:
 
Отчет EAC
Exact Audio Copy V0.99 prebeta 4 from 23. January 2008
Отчёт EAC об извлечении, выполненном 12. ноября 2008, 18:58
alexander_von_schlippenbach - sunny_murray / smoke
Дисковод: PLEXTOR DVD-ROM PX-130A Adapter: 0 ID: 0
Режим чтения : Достоверность
Использование точного потока : Да
Отключение кэша аудио : Да
Использование указателей C2 : Нет
Коррекция смещения при чтении : 738
Способность читать области Lead-in и Lead-out : Нет
Заполнение пропущенных сэмплов тишиной : Да
Удаление блоков с тишиной в начале и конце : Нет
При вычислениях CRC использовались нулевые сэмплы : Да
Интерфейс : Установленный внешний ASPI-интерфейс
Обработка зазоров : Добавлено к предыдущему треку
Выходной формат : Пользовательский кодировщик
Выбранный битрейт : 768 kBit/s
Качество : Высокий
Добавление ID3-тэга : Нет
Утилита сжатия : C:\Program Files\Exact Audio Copy\Flac\flac.exe
Дополнительные параметры : -V -8 -T "artist=%a" -T "title=%t" -T "album=%g" -T "date=%y" -T "tracknumber=%n" -T "genre=%m" %s
TOC извлечённого CD
Трек | Старт | Длительность | Начальный сектор | Конечный сектор
---------------------------------------------------------------------
1 | 0:00.00 | 9:55.10 | 0 | 44634
2 | 9:55.10 | 19:17.27 | 44635 | 131436
3 | 29:12.37 | 3:09.33 | 131437 | 145644
4 | 32:21.70 | 7:22.62 | 145645 | 178856
5 | 39:44.57 | 5:31.13 | 178857 | 203694
6 | 45:15.70 | 7:30.55 | 203695 | 237499
7 | 52:46.50 | 12:36.62 | 237500 | 294261
8 | 65:23.37 | 5:19.53 | 294262 | 318239
Трек 1
Имя файла N:\AUDIO CD\! NEW\alexander_von_schlippenbach - sunny_murray - smoke\01 smoke.wav
Длина предзазора 0:00:02.00
Пиковый уровень 77.6 %
Качество трека 100.0 %
CRC теста 65A9EB53
CRC копии 65A9EB53
Трек не обнаружен в базе AccurateRip
Копирование... OK
Трек 2
Имя файла N:\AUDIO CD\! NEW\alexander_von_schlippenbach - sunny_murray - smoke\02 down_the_mission.wav
Пиковый уровень 70.4 %
Качество трека 100.0 %
CRC теста 7A689B13
CRC копии 7A689B13
Трек не обнаружен в базе AccurateRip
Копирование... OK
Трек 3
Имя файла N:\AUDIO CD\! NEW\alexander_von_schlippenbach - sunny_murray - smoke\03 trinkle_trinkle.wav
Пиковый уровень 71.3 %
Качество трека 100.0 %
CRC теста E83186A6
CRC копии E83186A6
Трек не обнаружен в базе AccurateRip
Копирование... OK
Трек 4
Имя файла N:\AUDIO CD\! NEW\alexander_von_schlippenbach - sunny_murray - smoke\04 akiko_ma_non_troppo.wav
Пиковый уровень 75.9 %
Качество трека 100.0 %
CRC теста 425DCEED
CRC копии 425DCEED
Трек не обнаружен в базе AccurateRip
Копирование... OK
Трек 5
Имя файла N:\AUDIO CD\! NEW\alexander_von_schlippenbach - sunny_murray - smoke\05 angel_voice.wav
Пиковый уровень 65.3 %
Качество трека 100.0 %
CRC теста 71F77F44
CRC копии 71F77F44
Трек не обнаружен в базе AccurateRip
Копирование... OK
Трек 6
Имя файла N:\AUDIO CD\! NEW\alexander_von_schlippenbach - sunny_murray - smoke\06 khumbu.wav
Пиковый уровень 66.4 %
Качество трека 100.0 %
CRC теста D7C37842
CRC копии D7C37842
Трек не обнаружен в базе AccurateRip
Копирование... OK
Трек 7
Имя файла N:\AUDIO CD\! NEW\alexander_von_schlippenbach - sunny_murray - smoke\07 top_dogs_attack.wav
Пиковый уровень 50.9 %
Качество трека 100.0 %
CRC теста 75D8E495
CRC копии 75D8E495
Трек не обнаружен в базе AccurateRip
Копирование... OK
Трек 8
Имя файла N:\AUDIO CD\! NEW\alexander_von_schlippenbach - sunny_murray - smoke\08 the_shadow_of_man.wav
Пиковый уровень 64.6 %
Качество трека 100.0 %
CRC теста 8BE94182
CRC копии 8BE94182
Трек не обнаружен в базе AccurateRip
Копирование... OK
Ни одного трека нет в базе AccurateRip
Ошибок не произошло
Конец отчёта
Продолжим по Александру Вон Шлиппенбаху ) На сей раз дуэт: ударные и фортепиано!
Обзор:
http://www.allmusic.com/cg/amg.dll?p=amg&sql=10:wvfyxqygldje
 
Написано в буклете (англ.)
Recorded by Jost Gebers on October 6th,1989 at the FMP-Studio in Berlin.
"They met in the corridors to smoke.
Sunny Murray, cupbearer at the tables of kings;
Alexander von Schlippenbach, keeper of keys to the treasures of the inner Tradition.
he – locking in and out – makes all metals fly;
Murray wiping the table, glasses ground to dust under his hand.
both working in the halls of the Queens castle; their courage as unbreakable as its walls:
pouring the wine, opening the door." - Paul Lovens.
Приватный:
Нет (DHT включён)
Размер:
361.62 Мб (379,188,978 байт) » файлов: 10
Участники:
0 раздают, 0 качают (0 участников всего)
Внешние участники:
2 раздают, 1 качают (3 участников всего) [ Обновить ]
No seeders - write a personal message to user M0p94ok. Нет сидеров - пишите личное сообщение пользователю M0p94ok.
05:15
64
Нет комментариев. Ваш будет первым!