Поиск

(Jazz, FreeJazz) Heinz Sauer + Michael Wollny "Certain Beauty" - 2006, APE (image+.cue), lossless

(Jazz, FreeJazz) Heinz Sauer + Michael Wollny "Certain Beauty" - 2006, APE (image+.cue), lossless
Треклист:
Heinz Sauer + Michael Wollny "Certain Beauty"
Жанр: Jazz, FreeJazz
Год выпуска диска: 2006
Производитель диска: ACT Music (Германия)
Аудио кодек: APE
Тип рипа: image+.cue
Битрейт аудио: lossless
Продолжительность: 53'34
Трэклист:
01-stay on "c"
02-where is the line
03-i loves you porgy
04-evidence
05-kieser's exchange
06-nothing compares 2 u
07-ruby my dear
08-blues for pablo
09-certain beauty
10-laughing at dinosaurs
11-lover man
12-believe beleft below
13-chelsea bridge
14-tangent a
15-lush life
Доп. информация:
Heinz Sauer : tenor saxophone
Michael Wollny : piano, keyboards
 
скрытый текст
Exact Audio Copy V0.99 prebeta 4 from 23. January 2008
Отчёт EAC об извлечении, выполненном 18. ноября 2008, 16:36
Heinz Sauer Michael Wollny / Certain Beauty
Дисковод: Optiarc DVD RW AD-7173A Adapter: 1 ID: 0
Режим чтения : Достоверность
Использование точного потока : Да
Отключение кэша аудио : Да
Использование указателей C2 : Нет
Коррекция смещения при чтении : 48
Способность читать области Lead-in и Lead-out : Нет
Заполнение пропущенных сэмплов тишиной : Да
Удаление блоков с тишиной в начале и конце : Нет
При вычислениях CRC использовались нулевые сэмплы : Да
Интерфейс : Встроенный Win32-интерфейс для Win NT/2000
Выходной формат : Внутренние WAV-операции
Формат сэмплов : 44.100 Гц; 16 бит; стерео
TOC извлечённого CD
Трек | Старт | Длительность | Начальный сектор | Конечный сектор
---------------------------------------------------------------------
1 | 0:00.00 | 2:43.16 | 0 | 12240
2 | 2:43.16 | 3:06.59 | 12241 | 26249
3 | 5:50.00 | 4:31.45 | 26250 | 46619
4 | 10:21.45 | 2:36.17 | 46620 | 58336
5 | 12:57.62 | 3:13.73 | 58337 | 72884
6 | 16:11.60 | 2:45.19 | 72885 | 85278
7 | 18:57.04 | 4:11.26 | 85279 | 104129
8 | 23:08.30 | 4:23.59 | 104130 | 123913
9 | 27:32.14 | 3:16.53 | 123914 | 138666
10 | 30:48.67 | 1:41.64 | 138667 | 146305
11 | 32:30.56 | 3:59.33 | 146306 | 164263
12 | 36:30.14 | 3:29.30 | 164264 | 179968
13 | 39:59.44 | 3:05.46 | 179969 | 193889
14 | 43:05.15 | 2:13.31 | 193890 | 203895
15 | 45:18.46 | 4:15.18 | 203896 | 223038
Характеристики диапазона извлечения и сообщения об ошибках
Выбранный диапазон
Имя файла I:\APE\11\Heinz Sauer & Michael Wollny - Certain Beauty (2006)\Heinz Sauer Michael Wollny - Certain Beauty.wav
Пиковый уровень 99.9 %
Качество диапазона 100.0 %
CRC копии 1FE84BB8
Копирование... OK
Ошибок не произошло
Конец отчёта
Приватный:
Нет (DHT включён)
Размер:
212.41 Мб (222,728,430 байт) » файлов: 7
Участники:
0 раздают, 0 качают (0 участников всего)
Внешние участники:
1 раздают, 0 качают (1 участников всего) [ Обновить ]
No seeders - write a personal message to user M0p94ok. Нет сидеров - пишите личное сообщение пользователю M0p94ok.
05:14
59
Нет комментариев. Ваш будет первым!